<?xml version="1.0" standalone="no"?>
<!DOCTYPE svg PUBLIC "-//W3C//DTD SVG 1.1//EN" "http://www.w3.org/Graphics/SVG/1.1/DTD/svg11.dtd">
<svg xmlns="http://www.w3.org/2000/svg">
<defs >
<font id="Nunito" horiz-adv-x="618" ><font-face
    font-family="Nunito Black"
    units-per-em="1000"
    panose-1="0 0 0 0 0 0 0 0 0 0"
    ascent="1011"
    descent="-353"
    alphabetic="0" />
<glyph unicode=" " glyph-name="space" horiz-adv-x="286" />
<glyph unicode="!" glyph-name="exclam" horiz-adv-x="272" d="M138 239Q111 239 96 255T83 306L96 607Q100 714 202 714Q254 714 277 681T284 591L203 293Q188 239 138 239ZM113 -6Q67 -6 41 21T14 92Q14 134 40 161T113 188Q159 188 184 161T210 92Q210 49 185
22T113 -6Z" />
<glyph unicode="&quot;" glyph-name="quotedbl" horiz-adv-x="515" d="M163 389Q133 389 117 405T100 460L104 627Q105 665 131 689T197 714Q242 714 268 685T278 603L233 446Q224 414 205 402T163 389ZM410 389Q380 389 364 405T347 460L351 627Q352 665 378
689T444 714Q489 714 515 685T525 603L480 446Q471 414 452 402T410 389Z" />
<glyph unicode="#" glyph-name="numbersign" horiz-adv-x="600" d="M97 -9Q65 -9 55 12T57 68L90 160Q67 161 54 171T40 204Q40 265 104 265H128L192 448H167Q140 448 125 458T109 494Q109 522 125 538T173 554H231L268 660Q278 688 295 701T336 714Q367 714 376
694T373 637L344 554H432L469 660Q479 688 497 701T538 714Q570 714 579 694T577 637L547 554Q569 552 582 542T595 510Q595 480 580 464T532 448H509L445 265H469Q495 265 511 256T527 221Q527 192 512 176T463 159H406L366 45Q347 -9 298 -9Q267 -9 258 12T260
68L292 159H205L165 45Q155 17 137 4T97 -9ZM242 265H330L395 448H307L242 265Z" />
<glyph unicode="$" glyph-name="dollar" horiz-adv-x="600" d="M258 -124Q181 -124 193 -50L200 -3Q163 2 123 13T53 40Q26 54 16 76T8 123T26 165T65 189T119 181Q157 162 203 153T291 143Q344 143 373 160T402 206Q402 229 385 243T329 267L221 294Q146 313
103 361T59 480Q59 549 93 598T185 675T313 710L323 773Q327 798 346 813T397 828Q426 828 445 811T459 760L450 701Q474 695 499 686T550 662Q572 651 581 631T588 588T572 548T535 526T478 534Q447 549 414 555T351 561Q296 561 266 544T236 500Q236 477 251
462T303 438L412 411Q492 392 535 343T579 225Q579 156 547 108T459 33T338 -4L328 -69Q324 -95 306 -109T258 -124Z" />
<glyph unicode="%" glyph-name="percent" horiz-adv-x="964" d="M329 7Q310 -19 285 -22T239 -13T212 23T225 75L668 693Q687 719 712 722T758 713T785 677T772 626L329 7ZM241 280Q155 280 111 326T66 449Q66 523 89 582T158 676T267 711Q352 711 396 664T441
540Q441 465 418 406T350 314T241 280ZM240 388Q261 388 274 411T295 471T303 543Q304 577 295 589T267 602Q247 602 233 579T212 519T204 447Q203 413 212 401T240 388ZM729 -11Q643 -11 599 35T554 158Q554 232 577 291T646 385T755 420Q840 420 884 373T929
249Q929 174 906 115T838 23T729 -11ZM728 97Q749 97 763 121T784 180T792 252Q792 286 783 299T756 312Q735 312 721 288T700 229T692 156Q692 123 701 110T728 97Z" />
<glyph unicode="&amp;" glyph-name="ampersand" horiz-adv-x="766" d="M285 -11Q211 -11 157 12T72 76T41 169Q41 245 88 298T205 387Q183 414 173 447T162 513Q162 576 193 621T278 691T397 716Q482 716 532 674T582 565Q582 521 560 484T504 417T429 366L518
264Q536 290 549 318T574 383Q585 414 604 429T656 444Q694 444 712 423T720 365Q703 306 677 258T616 167L672 103Q697 76 696 50T673 7T617 -11Q601 -11 583 -6T551 14L507 65Q462 29 407 9T285 -11ZM394 600Q362 600 343 580T323 523Q323 507 329 491T351 453Q396
466 420 494T444 553Q444 574 432 587T394 600ZM313 123Q343 123 367 132T415 158L291 298Q258 280 238 254T217 196Q217 165 241 144T313 123Z" />
<glyph unicode="&apos;" glyph-name="quotesingle" horiz-adv-x="269" d="M163 389Q133 389 117 405T100 460L104 627Q105 665 131 689T197 714Q242 714 268 685T278 603L233 446Q224 414 205 402T163 389Z" />
<glyph unicode="(" glyph-name="parenleft" horiz-adv-x="407" d="M151 -137Q119 -55 106 19T92 163Q92 260 116 353T183 529T281 679Q302 704 330 709T382 702T415 666T409 609Q366 522 338 441T297 275T283 97Q283 51 286 8T296 -84Q301 -125 285 -149T241 -181T189
-177T151 -137Z" />
<glyph unicode=")" glyph-name="parenright" horiz-adv-x="407" d="M131 -151Q109 -177 81 -182T29 -175T-4 -139T3 -82Q45 3 73 84T115 250T129 430Q129 475 126 518T116 611Q110 652 127 676T171 707T223 703T261 663Q293 582 306 508T320 364Q320 266 296 174T230
-1T131 -151Z" />
<glyph unicode="*" glyph-name="asterisk" horiz-adv-x="456" d="M167 347Q143 361 140 383T152 430L180 471L134 468Q104 465 87 479T69 521Q69 549 86 563T134 575L181 571L153 612Q136 637 140 659T169 696Q193 710 214 701T247 663L272 607L296 663Q307 691
328 700T375 695Q400 680 403 658T390 611L362 571L409 574Q439 577 456 563T474 521Q474 493 457 479T409 468L361 471L390 430Q406 406 403 384T375 347Q350 332 329 341T297 378L271 437L245 379Q233 351 212 342T167 347Z" />
<glyph unicode="+" glyph-name="plus" horiz-adv-x="600" d="M270 31Q239 31 225 49T215 100L235 228H115Q53 228 53 276Q53 308 71 327T123 346H254L274 479Q284 537 342 537Q373 537 387 519T396 468L378 346H497Q560 346 560 298Q560 266 542 247T490 228H358L337
90Q328 31 270 31Z" />
<glyph unicode="," glyph-name="comma" horiz-adv-x="272" d="M107 -123Q87 -141 68 -141T36 -131T23 -101T43 -65Q77 -33 92 -4Q56 3 35 28T14 92Q14 134 40 161T112 188Q158 188 182 159T206 85Q206 23 183 -25T107 -123Z" />
<glyph unicode="-" glyph-name="hyphen" horiz-adv-x="445" d="M136 199Q58 199 58 257Q58 292 77 314T131 337H318Q396 337 396 280Q396 245 377 222T322 199H136Z" />
<glyph unicode="." glyph-name="period" horiz-adv-x="272" d="M113 -6Q67 -6 41 21T14 92Q14 134 40 161T113 188Q159 188 184 161T210 92Q210 49 185 22T113 -6Z" />
<glyph unicode="/" glyph-name="slash" horiz-adv-x="349" d="M82 -28Q67 -58 42 -65T-6 -62T-40 -28T-36 27L296 716Q311 746 336 753T384 750T418 716T414 661L82 -28Z" />
<glyph unicode="0" glyph-name="zero" horiz-adv-x="600" d="M288 -11Q169 -11 106 59T43 262Q43 401 80 503T185 660T347 716Q465 716 528 646T591 444Q591 305 554 203T449 45T288 -11ZM294 135Q345 135 379 217T417 464Q418 570 342 570Q290 570 255 490T218
241Q217 135 294 135Z" />
<glyph unicode="1" glyph-name="one" horiz-adv-x="600" d="M132 0Q94 0 74 16T53 64Q53 103 77 126T142 149H231L286 495L235 466Q206 450 182 453T143 474T125 514T132 560T171 600L325 687Q352 703 373 708T420 714Q461 714 478 691T490 626L415 149H480Q559
149 559 86Q559 47 536 24T470 0H132Z" />
<glyph unicode="2" glyph-name="two" horiz-adv-x="600" d="M121 0Q85 0 61 18T37 71Q37 100 49 121T96 174L294 356Q342 400 366 432T391 500Q391 532 368 548T308 565Q287 565 259 558T199 534Q173 521 153 526T119 549T103 589T109 632T142 666Q236 716 349
716Q415 716 465 692T543 626T571 531Q571 472 551 426T495 340T410 259L284 149H462Q541 149 541 87Q541 47 518 24T452 0H121Z" />
<glyph unicode="3" glyph-name="three" horiz-adv-x="600" d="M274 -11Q227 -11 174 -2T72 33Q45 46 35 68T28 113T45 155T80 180T125 173Q161 153 201 147T274 140Q317 140 345 160T374 219Q374 282 289 282H250Q170 282 170 346Q170 383 194 405T259 428H300Q346
428 375 446T405 503Q405 533 381 549T320 565Q293 565 261 558T197 536Q170 523 148 528T111 551T94 590T102 634T144 670Q195 695 247 705T347 716Q428 716 479 690T554 622T580 533Q581 469 543 425T442 362Q494 344 521 303T549 206Q549 149 518 100T425 20T274
-11Z" />
<glyph unicode="4" glyph-name="four" horiz-adv-x="600" d="M369 -9Q327 -9 306 14T292 82L298 118H110Q62 118 40 137T18 190Q18 221 32 244T69 295L374 653Q398 682 421 694T480 706Q518 706 538 680T551 605L495 257H520Q552 257 570 243T588 202Q588 164
568 141T500 118H475L468 77Q454 -9 369 -9ZM319 257L350 448L191 257H319Z" />
<glyph unicode="5" glyph-name="five" horiz-adv-x="600" d="M275 -11Q232 -11 181 -2T88 32Q62 46 53 67T47 112T65 152T100 175T146 170Q181 153 210 147T275 140Q328 140 361 165T394 235Q394 272 369 291T304 310Q283 310 261 304T216 283Q197 272 179 266T139
259Q107 259 91 277T80 336L127 629Q139 705 216 705H519Q598 705 598 641Q598 602 574 579T508 556H289L269 430Q319 456 374 456Q436 456 479 429T546 356T569 254Q569 171 529 112T421 21T275 -11Z" />
<glyph unicode="6" glyph-name="six" horiz-adv-x="600" d="M314 -11Q188 -11 120 63T51 264Q51 412 94 512T218 664T407 716Q450 716 492 706T572 671Q596 656 604 634T607 590T586 552T549 531T501 539Q475 554 449 560T398 566Q325 566 281 518T226 378Q252
419 295 441T386 463Q441 463 482 436T546 362T569 259Q569 182 537 121T447 24T314 -11ZM308 129Q350 129 375 160T401 242Q401 278 379 300T321 323Q279 323 253 292T227 210Q227 174 249 152T308 129Z" />
<glyph unicode="7" glyph-name="seven" horiz-adv-x="600" d="M151 -9Q116 -9 95 7T73 51T94 112L402 553H173Q133 553 112 570T90 620Q90 660 112 682T177 705H540Q592 705 610 686T629 637Q629 607 617 582T580 521L256 49Q234 17 210 4T151 -9Z" />
<glyph unicode="8" glyph-name="eight" horiz-adv-x="600" d="M273 -11Q153 -11 85 40T17 179Q17 245 55 295T153 364Q120 385 102 421T83 506Q83 574 119 620T218 691T359 715Q469 715 532 667T596 539Q596 483 564 434T481 363Q520 343 543 304T567 208Q567
137 529 88T424 14T273 -11ZM330 426Q376 426 402 450T429 512Q429 543 409 560T352 578Q304 578 277 553T250 490Q250 459 271 443T330 426ZM282 127Q336 127 369 150T402 216Q402 251 375 269T301 287Q246 287 214 264T182 199Q182 164 209 146T282 127Z" />
<glyph unicode="9" glyph-name="nine" horiz-adv-x="600" d="M229 -11Q187 -11 144 -1T61 34Q37 49 29 71T26 115T47 153T84 174T132 166Q159 151 186 145T238 139Q309 139 352 187T407 326Q382 286 339 264T248 242Q193 242 152 269T88 343T65 446Q65 523 97
584T186 681T320 716Q446 716 514 643T583 441Q583 295 540 194T417 41T229 -11ZM312 382Q354 382 380 413T406 495Q406 531 384 553T326 576Q284 576 258 545T232 463Q232 427 254 405T312 382Z" />
<glyph unicode=":" glyph-name="colon" horiz-adv-x="272" d="M163 304Q117 304 91 331T64 401Q64 445 90 471T163 498Q209 498 235 472T261 401Q261 359 235 332T163 304ZM113 -6Q67 -6 41 21T15 92Q15 134 41 161T113 188Q159 188 185 161T211 92Q211 49 185
22T113 -6Z" />
<glyph unicode=";" glyph-name="semicolon" horiz-adv-x="272" d="M163 304Q117 304 91 331T64 401Q64 445 90 471T163 498Q209 498 235 472T261 401Q261 359 235 332T163 304ZM107 -123Q87 -141 68 -141T36 -131T23 -101T43 -65Q77 -33 92 -4Q56 3 35 28T14 92Q14
134 40 161T112 188Q158 188 182 159T206 85Q206 23 183 -25T107 -123Z" />
<glyph unicode="&lt;" glyph-name="less" horiz-adv-x="600" d="M444 56L129 189Q52 222 52 274Q52 314 76 339T139 378L501 511Q532 522 553 511T581 476T581 431T543 397L218 280L492 168Q521 156 528 133T527 88T496 54T444 56Z" />
<glyph unicode="=" glyph-name="equal" horiz-adv-x="600" d="M131 328Q69 328 69 376Q69 408 87 427T139 446H514Q576 446 576 398Q576 366 558 347T506 328H131ZM99 128Q37 128 37 177Q37 208 55 227T107 246H482Q544 246 544 198Q544 166 526 147T474 128H99Z" />
<glyph unicode="&gt;" glyph-name="greater" horiz-adv-x="600" d="M112 63Q81 51 60 63T31 97T32 143T70 176L394 294L121 406Q92 417 84 440T85 486T115 520T167 518L483 385Q560 354 560 300Q560 261 536 236T474 197L112 63Z" />
<glyph unicode="?" glyph-name="question" horiz-adv-x="478" d="M246 233Q217 233 203 250T194 300Q200 339 217 369T281 439Q309 462 324 479T339 521Q339 541 325 553T281 565Q252 565 228 559T174 539Q136 522 111 534T76 571T78 625T123 671Q168 694 219
705T321 716Q381 716 425 694T494 636T519 554Q519 491 487 450T402 377Q350 346 331 323T300 269Q295 253 283 243T246 233ZM214 -6Q168 -6 142 21T116 92Q116 134 142 161T214 188Q260 188 286 161T312 92Q312 49 286 22T214 -6Z" />
<glyph unicode="@" glyph-name="at" horiz-adv-x="954" d="M496 -167Q398 -167 317 -136T178 -48T87 87T54 262Q54 399 111 501T273 660T516 716Q638 716 728 670T867 539T917 339Q917 253 893 190T823 93T719 58Q618 58 585 140Q558 99 522 79T443 58Q360 58
315 110T269 252Q269 325 296 381T370 470T480 503Q562 503 596 441Q608 493 664 493Q696 493 711 475T720 425L693 273Q690 253 688 238T686 210Q686 181 696 169T728 157Q765 157 790 207T815 339Q815 474 737 544T516 615Q411 615 333 572T213 450T170 262Q170
160 210 87T323 -26T496 -66Q553 -66 602 -54T694 -18Q720 -6 738 -13T762 -40T762 -80T730 -113Q685 -139 625 -153T496 -167ZM472 164Q518 164 545 205T573 318Q573 397 507 397Q460 397 432 358T403 254Q403 164 472 164Z" />
<glyph unicode="A" glyph-name="A" horiz-adv-x="763" d="M67 -9Q34 -9 13 5T-13 42T1 96L349 653Q369 685 392 699T453 714Q526 714 549 639L714 99Q731 45 708 18T643 -9Q603 -9 582 9T550 70L532 143H215L156 42Q142 17 120 4T67 -9ZM433 513L298 284H495L435
513H433Z" />
<glyph unicode="B" glyph-name="B" horiz-adv-x="702" d="M129 0Q80 0 57 27T42 102L123 617Q137 705 226 705H455Q538 705 589 683T663 622T686 535Q686 470 649 425T549 362Q599 343 626 304T654 211Q654 109 582 55T388 0H129ZM268 425H403Q511 425 511 512Q511
540 490 555T424 570H291L268 425ZM222 135H377Q429 135 454 158T479 223Q479 290 390 290H247L222 135Z" />
<glyph unicode="C" glyph-name="C" horiz-adv-x="688" d="M405 -11Q307 -11 230 25T108 134T63 313Q63 398 89 471T165 599T290 685T462 716Q507 716 555 706T646 673Q673 659 682 637T687 590T668 547T632 520T585 523Q547 542 517 549T458 556Q391 556 347 525T280
440T257 320Q257 232 298 191T427 149Q452 149 480 155T536 174Q564 186 586 179T621 154T637 111T629 65T589 30Q548 9 498 -1T405 -11Z" />
<glyph unicode="D" glyph-name="D" horiz-adv-x="786" d="M129 0Q80 0 57 27T42 102L123 617Q138 705 226 705H387Q565 705 661 623T758 396Q759 283 712 193T574 52T349 0H129ZM232 149H351Q458 149 512 215T567 393Q567 472 522 514T387 556H297L232 149Z" />
<glyph unicode="E" glyph-name="E" horiz-adv-x="614" d="M130 0Q79 0 57 26T42 102L123 617Q137 705 226 705H560Q596 705 615 690T634 647Q634 608 612 586T550 563H290L269 429H494Q530 429 549 414T568 371Q568 332 545 310T484 287H246L223 142H470Q506 142
525 127T544 84Q544 45 522 23T461 0H130Z" />
<glyph unicode="F" glyph-name="F" horiz-adv-x="579" d="M122 -9Q76 -9 55 17T41 93L123 617Q137 705 226 705H552Q589 705 608 690T627 647Q627 610 605 587T543 563H299L276 421H485Q522 421 541 406T560 364Q560 326 538 303T476 280H254L222 79Q208 -9 122 -9Z" />
<glyph unicode="G" glyph-name="G" horiz-adv-x="747" d="M407 -11Q308 -11 230 26T108 135T63 312Q63 426 110 517T250 662T477 716Q528 716 576 706T661 679Q690 666 701 644T710 596T692 552T654 525T601 529Q535 559 468 559Q397 559 350 526T278 438T253
319Q253 228 301 186T435 143Q477 143 527 155L545 268H479Q444 268 424 282T404 323Q404 358 426 377T487 397H630Q670 397 689 375T702 313L668 99Q663 67 647 46T599 16Q554 1 504 -5T407 -11Z" />
<glyph unicode="H" glyph-name="H" horiz-adv-x="786" d="M118 -9Q71 -9 52 19T41 99L124 623Q138 714 228 714Q275 714 294 686T305 606L278 433H568L599 623Q613 714 702 714Q749 714 768 686T779 606L696 83Q682 -9 593 -9Q545 -9 527 19T516 99L544 282H254L222
83Q208 -9 118 -9Z" />
<glyph unicode="I" glyph-name="I" horiz-adv-x="312" d="M119 -9Q72 -9 53 19T41 99L124 623Q139 714 229 714Q275 714 294 686T305 606L222 83Q208 -9 119 -9Z" />
<glyph unicode="J" glyph-name="J" horiz-adv-x="390" d="M38 -8Q1 -10 -21 9T-42 63Q-39 137 25 140L55 141Q92 143 112 161T139 220L203 630Q216 714 302 714Q348 714 370 688T385 616L320 208Q309 141 283 95T205 24T68 -6L38 -8Z" />
<glyph unicode="K" glyph-name="K" horiz-adv-x="712" d="M118 -9Q74 -9 53 18T40 97L124 624Q139 714 228 714Q272 714 292 687T305 608L273 403H275L552 672Q574 693 593 703T643 714Q679 714 699 693T720 643T692 588L448 357L633 111Q653 84 650 57T626 10T570
-9Q537 -9 516 4T469 52L262 323H260L222 79Q208 -9 118 -9Z" />
<glyph unicode="L" glyph-name="L" horiz-adv-x="585" d="M127 0Q79 0 57 26T41 100L125 629Q138 714 225 714Q271 714 293 688T307 614L234 153H464Q502 153 523 137T545 91Q545 48 521 24T453 0H127Z" />
<glyph unicode="M" glyph-name="M" horiz-adv-x="884" d="M114 -8Q69 -8 52 16T40 82L128 637Q140 714 218 714Q252 714 272 700T306 649L444 297L703 662Q723 690 745 702T802 714Q845 714 864 691T878 624L790 69Q778 -8 699 -8Q658 -8 639 16T626 82L674 385L494
134Q479 113 464 104T423 95Q397 95 382 107T355 144L254 381L204 69Q192 -8 114 -8Z" />
<glyph unicode="N" glyph-name="N" horiz-adv-x="757" d="M115 -9Q74 -9 53 17T40 91L126 637Q133 675 155 694T210 714Q245 714 264 701T301 658L529 284L583 630Q597 714 681 714Q721 714 740 688T752 614L665 69Q652 -9 586 -9Q551 -9 530 4T489 49L263 421L208
75Q201 32 179 12T115 -9Z" />
<glyph unicode="O" glyph-name="O" horiz-adv-x="807" d="M396 -11Q295 -11 220 26T104 134T62 305Q62 427 110 519T244 664T445 716Q546 716 621 679T737 571T779 401Q779 278 731 186T597 41T396 -11ZM398 143Q458 143 500 175T566 264T589 397Q589 481 550
521T442 562Q383 562 341 530T276 441T253 308Q253 224 292 184T398 143Z" />
<glyph unicode="P" glyph-name="P" horiz-adv-x="676" d="M117 -9Q73 -9 53 19T41 98L123 614Q137 705 229 705H435Q563 705 626 651T690 501Q690 377 615 310T396 243H248L222 82Q208 -9 117 -9ZM270 384H403Q515 384 515 485Q515 564 410 564H298L270 384Z" />
<glyph unicode="Q" glyph-name="Q" horiz-adv-x="807" d="M671 -91Q688 -125 682 -152T655 -194T608 -213T556 -203T515 -157L469 -56Q457 -31 439 -21T380 -11V-11Q284 -8 213 30T102 138T62 305Q62 427 110 519T244 664T445 716Q546 716 621 679T737 571T779
401Q779 272 726 176T579 31Q619 16 641 -30L671 -91ZM398 143Q458 143 500 175T566 264T589 397Q589 481 550 521T442 562Q383 562 341 530T276 441T253 308Q253 224 292 184T398 143Z" />
<glyph unicode="R" glyph-name="R" horiz-adv-x="706" d="M117 -9Q73 -9 53 19T41 99L123 614Q137 705 230 705H440Q561 705 625 652T690 504Q690 403 638 347T500 273Q529 262 549 238T583 178L610 107Q632 53 613 22T534 -9Q496 -9 474 10T437 70L383 212Q373
240 357 251T311 263H251L223 82Q208 -9 117 -9ZM271 393H404Q515 393 515 487Q515 526 490 545T409 564H298L271 393Z" />
<glyph unicode="S" glyph-name="S" horiz-adv-x="651" d="M303 -11Q245 -11 184 1T72 39Q45 53 35 75T27 121T45 163T83 188T137 180Q182 158 231 149T321 140Q378 140 408 158T439 205Q439 228 421 243T362 268L247 296Q171 313 127 361T82 480Q82 556 123 608T233
688T381 716Q429 716 485 705T592 666Q616 654 626 633T635 590T618 550T579 528T518 536Q487 550 450 557T380 565Q325 565 294 547T262 499Q262 454 332 437L447 410Q529 391 574 343T619 226Q619 166 593 122T523 48T422 4T303 -11Z" />
<glyph unicode="T" glyph-name="T" horiz-adv-x="644" d="M284 -9Q241 -9 220 19T207 98L279 555H137Q99 555 78 571T57 616Q57 658 81 681T147 705H630Q668 705 688 689T709 645Q709 603 686 579T620 555H463L388 82Q373 -9 284 -9Z" />
<glyph unicode="U" glyph-name="U" horiz-adv-x="748" d="M349 -11Q258 -11 189 24T86 133T71 318L120 629Q133 714 220 714Q266 714 287 688T301 613L252 308Q240 230 267 186T364 142Q426 142 464 176T513 281L568 629Q582 714 668 714Q712 714 733 688T747
614L696 290Q673 144 592 67T349 -11Z" />
<glyph unicode="V" glyph-name="V" horiz-adv-x="742" d="M337 -9Q262 -9 239 68L83 592Q69 642 92 673T162 705Q196 705 218 688T254 625L359 235L599 641Q619 675 641 690T699 705Q735 705 756 688T780 643T765 587L438 53Q418 20 395 6T337 -9Z" />
<glyph unicode="W" glyph-name="W" horiz-adv-x="1128" d="M297 -9Q227 -9 211 72L104 605Q94 654 117 684T187 714Q259 714 273 631L338 261L538 648Q555 682 578 698T634 714Q697 714 712 631L779 257L974 647Q991 681 1012 697T1070 714Q1122 714 1140 680T1134
597L853 56Q836 22 812 7T749 -9Q679 -9 663 72L593 423L402 57Q385 23 361 7T297 -9Z" />
<glyph unicode="X" glyph-name="X" horiz-adv-x="698" d="M96 -9Q60 -9 39 11T18 62T43 121L258 364L124 587Q105 619 109 648T135 695T194 714Q226 714 245 700T287 645L381 479L528 656Q555 689 577 701T630 714Q666 714 687 694T710 644T686 586L475 348L613
118Q632 87 628 58T600 10T542 -9Q510 -9 491 5T448 59L348 231L198 49Q171 16 149 4T96 -9Z" />
<glyph unicode="Y" glyph-name="Y" horiz-adv-x="645" d="M282 -9Q238 -9 219 19T207 98L241 312L94 586Q77 619 81 648T108 695T168 714Q199 714 220 700T261 645L349 475L500 656Q527 689 549 701T602 714Q638 714 659 694T680 645T656 586L425 313L388 82Q373
-9 282 -9Z" />
<glyph unicode="Z" glyph-name="Z" horiz-adv-x="625" d="M93 0Q54 0 33 26T16 92T63 176L416 554H175Q137 554 117 570T96 616Q96 658 119 681T186 705H566Q613 705 635 679T652 613T608 533L252 151H508Q546 151 567 135T588 90Q588 48 564 24T498 0H93Z" />
<glyph unicode="[" glyph-name="bracketleft" horiz-adv-x="401" d="M137 -180Q94 -180 69 -151T51 -80L165 639Q169 668 190 686T242 705H381Q419 705 437 689T456 645Q456 607 436 591T379 574H332L234 -49H278Q310 -49 323 -63T337 -101Q337 -138 317 -159T259
-180H137Z" />
<glyph unicode="\" glyph-name="backslash" horiz-adv-x="349" d="M182 -16L66 684Q60 716 77 736T120 760T169 752T198 705L315 4Q321 -28 304 -48T260 -72T211 -64T182 -16Z" />
<glyph unicode="]" glyph-name="bracketright" horiz-adv-x="401" d="M25 -180Q-13 -180 -31 -164T-50 -120Q-50 -82 -30 -66T27 -49H74L172 574H128Q96 574 83 588T69 626Q69 663 89 684T147 705H269Q312 705 337 676T355 605L241 -114Q237 -143 216 -161T164 -180H25Z" />
<glyph unicode="^" glyph-name="asciicircum" horiz-adv-x="600" d="M110 131Q71 131 59 154T64 210L269 582Q286 611 307 624T361 637Q423 637 439 569L524 212Q533 174 517 153T466 131Q432 131 421 149T404 187L340 472L181 177Q171 158 156 145T110 131Z" />
<glyph unicode="_" glyph-name="underscore" horiz-adv-x="500" d="M20 -101Q-9 -101 -22 -90T-36 -58Q-36 -26 -18 -13T25 0H386Q416 0 429 -11T442 -43Q442 -75 424 -88T381 -101H20Z" />
<glyph unicode="`" glyph-name="grave" horiz-adv-x="500" d="M367 572L295 676Q277 702 279 725T297 763T335 783T378 776T414 733L466 618Q476 595 468 577T442 549T404 544T367 572Z" />
<glyph unicode="a" glyph-name="a" horiz-adv-x="568" d="M185 -11Q137 -11 99 11T39 68T16 145Q16 223 83 258T291 294H359L360 303Q366 336 346 355T279 374Q223 374 163 351Q130 340 108 352T79 389T86 438T139 476Q184 491 225 497T304 503Q395 503 446 470T514
382T521 261L493 79Q479 -9 397 -9Q361 -9 343 11T327 73Q303 28 266 9T185 -11ZM247 105Q286 105 311 128T342 188L345 210H291Q235 210 211 198T186 157Q186 132 203 119T247 105Z" />
<glyph unicode="b" glyph-name="b" horiz-adv-x="620" d="M344 -11Q295 -11 257 10T199 70Q182 -9 100 -9Q59 -9 40 18T28 94L112 626Q126 714 214 714Q256 714 275 687T287 611L259 431Q287 466 326 484T411 503Q494 503 543 446T593 289Q593 203 562 135T475
28T344 -11ZM306 120Q356 120 385 165T414 279Q414 324 394 348T337 372Q286 372 257 327T228 213Q228 168 248 144T306 120Z" />
<glyph unicode="c" glyph-name="c" horiz-adv-x="484" d="M285 -11Q158 -11 93 52T28 219Q28 293 60 358T159 463T325 503Q360 503 386 499T439 485Q468 476 480 458T493 418T482 380T453 354T413 354Q374 369 340 369Q292 369 264 348T223 292T210 222Q210 178
234 151T314 123Q326 123 344 127T384 139Q408 147 426 134T450 97T446 48T400 11Q377 1 346 -5T285 -11Z" />
<glyph unicode="d" glyph-name="d" horiz-adv-x="620" d="M209 -11Q126 -11 77 47T27 203Q27 290 58 357T145 464T276 503Q325 503 362 484T420 426L451 627Q465 714 554 714Q596 714 615 687T627 611L543 80Q528 -9 441 -9Q406 -9 387 11T368 69Q340 31 299 10T209
-11ZM284 120Q334 120 363 165T392 279Q392 324 372 348T315 372Q264 372 235 328T206 213Q206 168 226 144T284 120Z" />
<glyph unicode="e" glyph-name="e" horiz-adv-x="555" d="M291 -11Q212 -11 153 17T61 98T28 219Q28 304 65 368T167 467T311 503Q396 503 447 467T517 372T529 250Q526 225 515 218T486 210H193Q195 166 226 143T311 120Q334 120 362 125T412 140Q446 154 466
142T491 106T485 56T443 19Q407 3 368 -4T291 -11ZM309 387Q264 387 239 360T204 294H393Q395 335 375 361T309 387Z" />
<glyph unicode="f" glyph-name="f" horiz-adv-x="402" d="M143 -9Q101 -9 82 18T70 94L112 361H92Q23 361 23 414Q23 450 44 471T102 492H133L134 500Q147 590 208 645T395 708L418 709Q452 711 467 693T483 650T469 605T429 582L405 580Q361 576 340 559T313
506L310 492H360Q428 492 428 440Q428 403 407 382T350 361H290L246 79Q231 -9 143 -9Z" />
<glyph unicode="g" glyph-name="g" horiz-adv-x="626" d="M265 -191Q208 -191 153 -182T58 -152Q26 -137 19 -112T21 -62T54 -26T109 -30Q170 -60 237 -60Q292 -60 326 -40T369 31L377 83Q352 48 312 31T227 13Q137 13 83 65T28 216Q28 295 60 360T149 464T280
503Q332 503 370 483T429 423Q445 501 528 501Q569 501 587 474T598 398L542 41Q525 -68 456 -129T265 -191ZM287 144Q323 144 348 164T386 217T399 289Q399 326 378 349T318 372Q283 372 258 352T220 299T207 227Q207 190 228 167T287 144Z" />
<glyph unicode="h" glyph-name="h" horiz-adv-x="606" d="M101 -9Q59 -9 40 18T28 95L112 626Q126 714 214 714Q256 714 275 687T287 611L259 430Q313 503 416 503Q495 503 538 453T564 291L531 79Q517 -9 428 -9Q386 -9 367 18T354 94L385 288Q391 327 380 347T334
367Q293 367 267 340T232 262L203 79Q189 -9 101 -9Z" />
<glyph unicode="i" glyph-name="i" horiz-adv-x="281" d="M193 572Q146 572 124 594T108 656Q120 743 220 743Q266 743 289 721T306 659Q292 572 193 572ZM100 -9Q58 -9 39 18T27 94L78 413Q92 501 180 501Q222 501 241 474T253 398L202 79Q188 -9 100 -9Z" />
<glyph unicode="j" glyph-name="j" horiz-adv-x="287" d="M196 572Q150 572 128 594T111 656Q124 743 224 743Q270 743 293 721T310 659Q296 572 196 572ZM-42 -190Q-76 -191 -92 -173T-109 -130T-95 -85T-50 -62Q-22 -60 -5 -45T18 3L83 413Q98 501 184 501Q226
501 246 474T258 398L200 27Q183 -83 129 -135T-42 -190Z" />
<glyph unicode="k" glyph-name="k" horiz-adv-x="580" d="M101 -9Q60 -9 41 18T29 94L113 627Q127 714 215 714Q257 714 276 687T288 610L238 294H240L389 448Q415 476 436 488T491 501Q528 501 545 482T559 434T532 379L409 250L500 114Q519 83 517 55T495 9T440
-9Q400 -9 378 6T333 58L227 214H225L204 78Q190 -9 101 -9Z" />
<glyph unicode="l" glyph-name="l" horiz-adv-x="348" d="M209 -11Q113 -11 71 42T44 196L113 625Q127 714 215 714Q257 714 276 687T288 611L222 199Q217 165 229 148T265 130Q273 130 279 131T292 133Q305 133 313 123T321 87Q321 45 305 25T269 -3Q259 -7 242
-9T209 -11Z" />
<glyph unicode="m" glyph-name="m" horiz-adv-x="902" d="M102 -9Q60 -9 41 17T29 90L81 417Q94 501 180 501Q217 501 236 481T254 423Q284 465 325 484T408 503Q506 503 543 415Q571 459 614 481T711 503Q790 503 832 453T857 291L823 76Q810 -9 724 -9Q680 -9
661 17T648 90L679 289Q691 367 633 367Q598 367 575 340T543 262L514 76Q501 -9 414 -9Q371 -9 351 17T338 90L370 289Q382 367 324 367Q289 367 266 340T234 262L205 76Q192 -9 102 -9Z" />
<glyph unicode="n" glyph-name="n" horiz-adv-x="606" d="M101 -8Q59 -8 40 19T28 96L78 413Q92 501 180 501Q217 501 236 481T253 422Q307 503 416 503Q495 503 538 453T564 291L531 81Q517 -8 428 -8Q386 -8 367 19T355 96L385 288Q391 327 380 347T334 367Q293
367 267 340T232 262L203 81Q190 -8 101 -8Z" />
<glyph unicode="o" glyph-name="o" horiz-adv-x="602" d="M282 -11Q161 -11 95 52T29 219Q29 290 53 343T119 432T213 485T320 503Q440 503 506 440T573 274Q573 202 549 149T483 60T389 7T282 -11ZM285 120Q336 120 365 165T394 279Q394 324 374 348T316 372Q266
372 237 328T208 213Q208 168 228 144T285 120Z" />
<glyph unicode="p" glyph-name="p" horiz-adv-x="620" d="M72 -189Q30 -189 11 -162T-1 -86L78 413Q92 501 179 501Q215 501 234 481T252 424Q280 462 321 482T411 503Q494 503 543 446T593 289Q593 203 562 135T475 28T344 -11Q296 -11 259 8T201 65L174 -102Q160
-189 72 -189ZM306 120Q356 120 385 165T414 279Q414 324 394 348T337 372Q286 372 257 327T228 213Q228 168 248 144T306 120Z" />
<glyph unicode="q" glyph-name="q" horiz-adv-x="620" d="M411 -189Q369 -189 350 -162T338 -86L362 62Q334 27 295 8T210 -11Q126 -11 77 47T27 203Q27 290 58 357T145 464T277 503Q327 503 366 482T423 418Q438 501 520 501Q561 501 580 474T593 398L514 -100Q500
-189 411 -189ZM284 120Q334 120 363 165T392 279Q392 324 372 348T315 372Q264 372 235 328T206 213Q206 168 226 144T284 120Z" />
<glyph unicode="r" glyph-name="r" horiz-adv-x="434" d="M101 -9Q58 -9 39 17T27 90L78 417Q91 501 178 501Q219 501 238 476T251 407Q273 451 312 476T401 503Q432 503 446 490T461 445Q461 397 440 375T374 349L337 345Q285 340 263 315T231 237L206 76Q192
-9 101 -9Z" />
<glyph unicode="s" glyph-name="s" horiz-adv-x="496" d="M229 -11Q183 -11 139 -4T63 17Q29 30 19 54T17 101T47 136T101 136Q166 109 228 109Q267 109 285 121T303 151Q303 164 294 172T262 183L173 198Q111 208 78 242T44 328Q44 374 71 414T153 478T290 503Q320
503 356 497T423 478Q456 465 466 442T468 397T437 363T383 363Q360 372 333 378T280 384Q239 384 220 371T201 339Q201 328 208 320T234 309L323 295Q392 283 426 249T460 164Q460 78 397 34T229 -11Z" />
<glyph unicode="t" glyph-name="t" horiz-adv-x="426" d="M282 -11Q206 -11 158 16T91 91T82 201L108 361H86Q16 361 16 417Q16 453 39 472T104 492H129L140 562Q153 644 236 644Q281 644 302 619T315 547L307 492H379Q412 492 431 478T450 437Q450 405 429 383T370
361H286L261 208Q255 166 271 149T318 132Q333 132 343 134T365 137Q383 137 392 127T401 88Q401 39 384 20T341 -5Q312 -11 282 -11Z" />
<glyph unicode="u" glyph-name="u" horiz-adv-x="601" d="M189 -11Q137 -11 100 11T46 80T42 201L77 419Q90 501 173 501Q218 501 239 476T253 404L221 204Q215 165 226 145T270 125Q309 125 335 153T369 231L399 419Q412 501 495 501Q540 501 560 476T574 404L522
73Q509 -9 426 -9Q339 -9 352 77Q324 32 282 11T189 -11Z" />
<glyph unicode="v" glyph-name="v" horiz-adv-x="541" d="M239 -9Q197 -9 173 10T137 69L50 383Q35 435 58 468T129 501Q165 501 184 484T213 422L261 213L389 439Q407 473 429 487T485 501Q536 501 552 470T543 397L336 53Q316 20 292 6T239 -9Z" />
<glyph unicode="w" glyph-name="w" horiz-adv-x="868" d="M227 -9Q156 -9 136 69L54 383Q40 436 62 468T132 501Q165 501 182 484T210 425L258 211L389 454Q414 501 465 501Q519 501 532 443L584 201L710 434Q730 472 751 486T808 501Q858 501 873 470T865 397L668
53Q633 -9 565 -9Q493 -9 473 69L431 241L331 56Q296 -9 227 -9Z" />
<glyph unicode="x" glyph-name="x" horiz-adv-x="572" d="M92 -9Q55 -9 36 9T18 55T44 109L186 256L101 385Q81 414 85 440T110 484T163 501Q196 501 217 488T257 447L305 368L381 455Q403 479 422 490T473 501Q509 501 528 483T546 438T520 384L392 248L486 109Q505
79 501 52T476 8T422 -9Q364 -9 330 45L274 133L183 37Q160 13 141 2T92 -9Z" />
<glyph unicode="y" glyph-name="y" horiz-adv-x="541" d="M130 -189Q80 -189 64 -157T73 -85L147 35L50 383Q35 435 58 468T129 501Q165 501 184 484T213 422L261 213L389 439Q407 473 428 487T485 501Q535 501 551 470T543 397L227 -126Q207 -160 186 -174T130 -189Z" />
<glyph unicode="z" glyph-name="z" horiz-adv-x="487" d="M86 0Q46 0 26 21T7 72T40 132L270 361H130Q97 361 79 375T61 414Q61 450 82 471T139 492H410Q451 492 471 471T488 419T452 356L226 131H376Q446 131 446 77Q446 42 425 21T368 0H86Z" />
<glyph unicode="{" glyph-name="braceleft" horiz-adv-x="438" d="M243 -180Q162 -180 124 -139T94 -36L119 117Q126 160 116 174T76 193Q30 200 30 247Q30 283 45 305T88 330Q125 332 141 348T165 404L189 559Q201 634 241 669T342 705H422Q459 705 475 688T492
640Q492 609 473 592T422 574H406Q390 574 378 565T362 531L339 383Q332 334 300 302T235 263Q264 255 286 221T300 139L277 -8Q273 -33 282 -41T310 -49H323Q344 -49 357 -65T371 -107Q371 -180 303 -180H243Z" />
<glyph unicode="|" glyph-name="bar" horiz-adv-x="316" d="M90 -189Q48 -189 29 -162T17 -86L129 625Q143 714 232 714Q274 714 293 687T305 611L193 -100Q179 -189 90 -189Z" />
<glyph unicode="}" glyph-name="braceright" horiz-adv-x="438" d="M21 -180Q-16 -180 -32 -163T-49 -115Q-49 -84 -30 -67T21 -49H37Q53 -49 65 -40T81 -6L104 142Q111 191 143 223T208 262Q179 270 157 304T143 386L166 533Q170 558 161 566T133 574H120Q99
574 86 590T72 632Q72 705 140 705H200Q281 705 319 664T349 561L324 408Q317 365 327 351T367 332Q413 325 413 278Q413 242 398 220T355 195Q318 193 302 177T278 121L254 -34Q242 -109 202 -144T101 -180H21Z" />
<glyph unicode="~" glyph-name="asciitilde" horiz-adv-x="600" d="M414 199Q383 199 352 211T293 236Q269 247 248 255T211 263Q180 263 158 238Q142 219 122 218T87 228T67 258T77 301Q124 376 199 376Q230 376 261 364T322 338Q346 328 365 320T401 312Q432
312 454 337Q471 356 490 357T525 347T545 316T536 274Q512 238 482 219T414 199Z" />
<glyph unicode="&#xa0;" glyph-name="uni00A0" horiz-adv-x="286" />
<glyph unicode="&#xa1;" glyph-name="exclamdown" horiz-adv-x="272" d="M163 304Q117 304 91 331T64 401Q64 445 90 471T163 498Q209 498 235 472T261 401Q261 359 235 332T163 304ZM75 -189Q23 -189 -1 -156T-8 -67L70 207Q86 260 134 260Q189 260 188 192L181
-81Q180 -133 153 -161T75 -189Z" />
<glyph unicode="&#xa2;" glyph-name="cent" horiz-adv-x="600" d="M261 -124Q229 -124 211 -107T199 -53L210 16Q141 40 106 93T71 219Q71 280 94 335T165 431T285 488L296 564Q300 589 319 605T371 621Q398 621 418 605T433 552L424 494Q464 489 495 476Q527
464 536 440T538 391T507 354T455 351Q421 364 384 364Q335 364 307 342T266 288T253 222Q253 184 277 158T358 131Q371 131 390 134T427 145Q453 155 472 141T497 101T492 52T449 17Q425 8 398 4T346 -2L336 -66Q326 -124 261 -124Z" />
<glyph unicode="&#xa3;" glyph-name="sterling" horiz-adv-x="600" d="M87 0Q45 0 24 18T3 65Q3 103 26 123T89 146L114 300H102Q72 300 59 313T46 345Q46 372 64 389T109 407H131L142 481Q161 598 228 657T422 716Q463 716 507 707T586 677Q618 660 625 633T622
582T587 546T532 548Q500 563 477 568T433 574Q384 574 359 551T327 488L314 407H408Q438 407 451 394T464 361Q464 334 446 317T400 300H297L273 147H469Q512 147 533 129T554 82Q554 47 528 24T459 0H87Z" />
<glyph unicode="&#xa4;" glyph-name="currency" horiz-adv-x="600" d="M48 -13Q35 0 35 17T48 48L99 101Q78 132 67 168T55 245Q55 286 66 322T99 390L48 442Q35 455 35 472T48 503Q61 516 79 516T110 503L161 451Q191 470 226 481T298 493Q374 493 434 451L485
503Q498 516 517 517T551 504Q566 490 566 471T552 438L499 385Q540 323 540 245Q540 206 529 170T498 103L551 48Q564 35 564 18T551 -13Q538 -25 521 -25T491 -11L439 42Q377 -3 298 -3Q260 -3 225 8T160 40L109 -12Q96 -25 79 -25T48 -13ZM299 134Q327 134 350
149T388 189T402 245Q402 291 372 323T299 356Q270 356 246 341T208 301T194 245Q194 200 224 167T299 134Z" />
<glyph unicode="&#xa5;" glyph-name="yen" horiz-adv-x="600" d="M259 -9Q216 -9 196 19T184 98L192 149H107Q79 149 62 162T44 198Q44 223 61 237T100 252H209L218 309H133Q104 309 87 322T70 358Q70 383 86 397T126 412H190L98 594Q83 625 89 652T117 697T174
714Q204 714 222 701T256 650L331 488L464 661Q486 691 505 702T552 714Q586 714 607 696T631 650T614 597L462 412H503Q531 412 548 399T565 362Q565 338 549 324T509 309H401L392 252H477Q506 252 523 239T540 202Q540 178 524 164T484 149H376L365 82Q350 -9
259 -9Z" />
<glyph unicode="&#xa6;" glyph-name="brokenbar" horiz-adv-x="316" d="M177 362Q135 362 116 389T104 466L129 625Q144 714 232 714Q274 714 293 687T305 611L280 451Q266 362 177 362ZM90 -189Q48 -189 29 -162T17 -86L42 74Q57 163 145 163Q187 163 206 136T218
60L193 -100Q179 -189 90 -189Z" />
<glyph unicode="&#xa7;" glyph-name="section" horiz-adv-x="599" d="M244 -191Q144 -191 54 -149Q23 -135 15 -111T17 -65T51 -33T103 -37Q136 -53 171 -62T238 -71Q276 -71 299 -55T323 -8Q323 31 275 56L144 125Q90 153 63 193T36 280Q36 336 59 375T129 442Q113
473 113 512Q113 578 147 623T237 692T361 716Q405 716 447 708T535 679Q568 664 575 641T571 597T536 566T481 569Q452 582 422 589T365 596Q328 596 305 580T282 532Q282 511 293 496T330 467L460 398Q514 369 541 329T569 243Q569 189 545 150T476 81Q491 51
491 15Q491 -53 458 -99T368 -168T244 -191ZM191 313Q191 268 248 239L369 177Q387 167 398 158Q407 172 410 185T414 211Q414 255 356 285L235 347Q218 357 205 366Q197 352 194 339T191 313Z" />
<glyph unicode="&#xa8;" glyph-name="dieresis" horiz-adv-x="500" d="M407 577Q338 577 338 639Q338 682 362 709T431 737Q500 737 500 676Q500 632 477 605T407 577ZM201 577Q131 577 131 639Q131 682 155 709T225 737Q294 737 294 676Q294 632 270 605T201 577Z" />
<glyph unicode="&#xa9;" glyph-name="copyright" horiz-adv-x="815" d="M425 -11Q347 -11 281 16T166 93T89 209T61 353Q61 430 88 496T165 611T281 688T425 716Q502 716 568 689T683 612T760 496T788 353Q788 276 761 210T684 94T568 17T425 -11ZM425 53Q511
53 577 92T682 200T720 353Q720 438 682 506T578 613T425 652Q339 652 272 613T167 506T129 353Q129 268 167 200T272 93T425 53ZM448 137Q345 137 283 195T221 353Q221 453 283 510T448 568Q473 568 497 564T549 548Q574 539 582 518T586 475T564 443T523 442Q492
456 462 456Q419 456 394 429T368 353Q368 304 393 277T462 250Q493 250 524 263Q549 273 566 263T590 232T590 192T558 160Q532 149 504 143T448 137Z" />
<glyph unicode="&#xaa;" glyph-name="ordfeminine" horiz-adv-x="354" d="M161 404Q116 404 86 433T56 499Q56 546 103 569T237 592H275V594Q282 636 230 636Q215 636 195 634T158 626Q137 621 124 629T107 651T110 680T140 702Q161 709 187 712T242 716Q299 716
331 696T375 642T380 568L361 452Q353 404 307 404Q278 404 267 419T259 455L261 467H258Q222 404 161 404ZM202 475Q226 475 243 489T264 526L266 537H237Q204 537 185 530T166 506Q166 493 175 484T202 475Z" />
<glyph unicode="&#xab;" glyph-name="guillemotleft" horiz-adv-x="558" d="M200 82Q167 67 140 78T99 120L60 207Q47 235 50 265T76 323L170 437Q187 458 211 463T259 456Q284 443 288 416T264 347L203 260L231 167Q239 138 232 115T200 82ZM438 82Q405 67 378
78T337 120L298 207Q285 235 288 265T314 323L408 437Q425 458 449 463T497 456Q522 443 526 416T502 347L441 260L469 167Q477 138 470 115T438 82Z" />
<glyph unicode="&#xac;" glyph-name="logicalnot" horiz-adv-x="600" d="M465 120Q435 120 421 138T411 189L433 327H131Q69 327 69 376Q69 408 87 427T139 446H474Q522 446 544 420T559 346L533 178Q524 120 465 120Z" />
<glyph unicode="&#xad;" glyph-name="uni00AD" horiz-adv-x="445" d="M136 199Q58 199 58 257Q58 292 77 314T131 337H318Q396 337 396 280Q396 245 377 222T322 199H136Z" />
<glyph unicode="&#xae;" glyph-name="registered" horiz-adv-x="815" d="M425 -11Q347 -11 281 16T166 93T89 209T61 353Q61 430 88 496T165 611T281 688T425 716Q502 716 568 689T683 612T760 496T788 353Q788 276 761 210T684 94T568 17T425 -11ZM425 53Q511
53 577 92T682 200T720 353Q720 438 682 506T578 613T425 652Q339 652 272 613T167 506T129 353Q129 268 167 200T272 93T425 53ZM322 136Q257 136 257 203V488Q257 525 277 545T334 566H454Q527 566 567 529T607 438Q607 395 586 367T525 327Q546 321 559 304T583
249L593 213Q603 172 583 154T527 136Q478 136 467 188L449 261Q445 279 435 285T411 292H388V203Q388 136 322 136ZM387 386H435Q483 386 483 429Q483 472 435 472H387V386Z" />
<glyph unicode="&#xaf;" glyph-name="overscore" horiz-adv-x="500" d="M188 605Q136 605 136 646Q136 671 151 686T195 702H441Q493 702 493 662Q493 636 478 621T435 605H188Z" />
<glyph unicode="&#xb0;" glyph-name="degree" horiz-adv-x="389" d="M242 386Q194 386 156 407T97 465T75 548Q75 595 97 631T156 689T242 710Q290 710 328 689T387 632T409 548Q409 502 388 465T328 407T242 386ZM242 477Q271 477 290 497T310 548Q310 578 291
598T242 619Q213 619 194 599T175 548Q175 518 194 498T242 477Z" />
<glyph unicode="&#xb1;" glyph-name="plusminus" horiz-adv-x="600" d="M288 144Q257 144 242 161T233 213L244 283H124Q94 283 78 296T62 332Q62 364 80 383T132 403H264L275 483Q284 542 343 542Q374 542 388 523T397 472L387 403H507Q538 403 553 390T569 353Q569
322 551 303T499 283H368L355 203Q345 144 288 144ZM79 0Q17 0 17 49Q17 80 35 99T87 119H462Q524 119 524 70Q524 38 506 19T454 0H79Z" />
<glyph unicode="&#xb2;" glyph-name="uni00B2" horiz-adv-x="380" d="M114 282Q83 282 67 297T51 337Q51 359 59 373T86 404L205 506Q244 540 244 569Q245 582 235 589T209 597Q195 597 182 594T156 586Q135 578 120 588T98 618T100 657T133 688Q162 700 190 704T247
709Q319 709 356 672T394 588Q394 546 372 514T293 438L241 395H318Q378 395 378 350Q378 318 360 300T310 282H114Z" />
<glyph unicode="&#xb3;" glyph-name="uni00B3" horiz-adv-x="380" d="M200 276Q168 276 134 282T70 304Q49 314 44 332T46 369T71 397T111 397Q130 389 151 386T190 382Q245 382 246 417Q247 443 204 443H179Q155 443 140 453T124 485Q124 511 140 528T186 545H211Q262
545 262 576Q262 603 216 603Q197 603 181 600T151 591Q126 583 110 592T88 619T91 657T125 686Q149 696 178 702T238 708Q309 708 351 680T395 605Q396 569 372 540T308 499Q340 488 358 464T378 407Q378 369 355 340T292 293T200 276Z" />
<glyph unicode="&#xb4;" glyph-name="acute" horiz-adv-x="500" d="M363 563Q346 545 327 543T293 552T274 581T284 621L366 751Q382 775 402 781T442 781T474 758T487 721T468 679L363 563Z" />
<glyph unicode="&#xb5;" glyph-name="uni00B5" horiz-adv-x="600" d="M71 -189Q29 -189 10 -163T-3 -89L78 418Q91 501 178 501Q221 501 241 475T253 401L222 204Q210 125 271 125Q310 125 336 153T370 231L399 416Q413 501 500 501Q543 501 562 475T575 401L523
76Q511 -9 424 -9Q386 -9 365 11T347 61L352 90H351Q336 41 312 15T254 -11Q201 -11 182 29H180L167 -100Q159 -189 71 -189Z" />
<glyph unicode="&#xb6;" glyph-name="paragraph" horiz-adv-x="667" d="M246 -189Q217 -189 204 -170T196 -118L255 248Q194 248 150 274T82 345T58 447Q58 525 90 583T180 673T317 705H586Q628 705 648 682T662 616L543 -128Q534 -189 473 -189Q444 -189 431
-170T423 -118L534 583H430L317 -128Q308 -189 246 -189Z" />
<glyph unicode="&#xb7;" glyph-name="middot" horiz-adv-x="272" d="M140 172Q95 172 69 199T42 269Q42 312 68 338T140 365Q186 365 212 339T238 269Q238 226 212 199T140 172Z" />
<glyph unicode="&#xb8;" glyph-name="cedilla" horiz-adv-x="500" d="M187 -198Q166 -198 148 -196T109 -189Q89 -184 82 -170T78 -141T95 -118T128 -115Q151 -122 175 -122Q226 -122 226 -99Q226 -83 192 -83Q181 -83 169 -85Q160 -86 154 -86T143 -80Q135 -71
140 -55L163 20H247L231 -31Q275 -32 298 -50T322 -100Q322 -145 284 -171T187 -198Z" />
<glyph unicode="&#xb9;" glyph-name="uni00B9" horiz-adv-x="380" d="M111 282Q51 282 51 329Q51 359 69 377T119 395H172L196 545L178 537Q147 522 125 531T93 561T92 605T130 642L226 688Q244 697 261 703T299 709Q334 709 344 691T351 643L312 395H323Q383
395 383 349Q383 319 365 301T315 282H111Z" />
<glyph unicode="&#xba;" glyph-name="ordmasculine" horiz-adv-x="370" d="M230 407Q158 407 112 446T66 553Q66 603 89 640T151 696T240 716Q311 716 358 677T405 571Q405 521 382 484T318 427T230 407ZM232 490Q257 490 274 510T292 572Q292 603 277 618T239
634Q213 634 196 615T179 552Q179 521 193 506T232 490Z" />
<glyph unicode="&#xbb;" glyph-name="guillemotright" horiz-adv-x="558" d="M67 79Q42 92 38 119T62 187L123 275L95 368Q87 397 94 419T125 452Q159 467 185 456T227 414L266 328Q279 299 276 270T250 211L156 97Q138 76 114 72T67 79ZM305 79Q280 92 276 119T300
187L361 275L333 368Q325 397 332 419T363 452Q397 467 423 456T465 414L504 328Q517 299 514 270T488 211L394 97Q376 76 352 72T305 79Z" />
<glyph unicode="&#xbc;" glyph-name="onequarter" horiz-adv-x="934" d="M111 282Q51 282 51 329Q51 359 69 377T119 395H172L196 545L178 537Q147 522 125 531T93 561T92 605T130 642L226 688Q244 697 261 703T299 709Q334 709 344 691T351 643L312 395H323Q383
395 383 349Q383 319 365 301T315 282H111ZM341 11Q322 -15 298 -17T253 -7T228 29T242 79L695 694Q714 720 738 723T782 713T807 676T793 626L341 11ZM772 -4Q741 -4 727 9T716 46L719 61H608Q578 61 560 72T541 109Q541 131 550 146T569 173L748 381Q769 405
789 417T839 429Q906 429 895 361L864 165H873Q888 165 900 154T912 122Q912 99 899 80T858 61H848L845 46Q841 24 822 10T772 -4ZM740 165L756 265L672 165H740Z" />
<glyph unicode="&#xbd;" glyph-name="onehalf" horiz-adv-x="987" d="M111 282Q51 282 51 329Q51 359 69 377T119 395H172L196 545L178 537Q147 522 125 531T93 561T92 605T130 642L226 688Q244 697 261 703T299 709Q334 709 344 691T351 643L312 395H323Q383
395 383 349Q383 319 365 301T315 282H111ZM341 11Q322 -15 298 -17T253 -7T228 29T242 79L695 694Q714 720 738 723T782 713T807 676T793 626L341 11ZM676 0Q645 0 629 15T613 55Q613 77 621 91T648 122L767 224Q806 258 806 287Q807 300 797 307T771 315Q757
315 744 312T718 304Q697 296 682 306T660 336T662 375T695 406Q724 418 752 422T809 427Q881 427 918 390T956 306Q956 264 934 232T855 156L803 113H880Q940 113 940 68Q940 36 922 18T872 0H676Z" />
<glyph unicode="&#xbe;" glyph-name="threequarters" horiz-adv-x="934" d="M200 276Q168 276 134 282T70 304Q49 314 44 332T46 369T71 397T111 397Q130 389 151 386T190 382Q245 382 246 417Q247 443 204 443H179Q155 443 140 453T124 485Q124 511 140 528T186
545H211Q262 545 262 576Q262 603 216 603Q197 603 181 600T151 591Q126 583 110 592T88 619T91 657T125 686Q149 696 178 702T238 708Q309 708 351 680T395 605Q396 569 372 540T308 499Q340 488 358 464T378 407Q378 369 355 340T292 293T200 276ZM341 11Q322
-15 298 -17T253 -7T228 29T242 79L695 694Q714 720 738 723T782 713T807 676T793 626L341 11ZM772 -4Q741 -4 727 9T716 46L719 61H608Q578 61 560 72T541 109Q541 131 550 146T569 173L748 381Q769 405 789 417T839 429Q906 429 895 361L864 165H873Q888 165
900 154T912 122Q912 99 899 80T858 61H848L845 46Q841 24 822 10T772 -4ZM740 165L756 265L672 165H740Z" />
<glyph unicode="&#xbf;" glyph-name="questiondown" horiz-adv-x="478" d="M264 304Q218 304 192 331T165 401Q165 445 191 471T264 498Q310 498 335 472T361 401Q361 359 336 332T264 304ZM170 -191Q106 -191 60 -171T-12 -116T-37 -39Q-37 17 -7 57T77 126Q128
152 148 175T177 225Q181 240 192 249T229 259Q258 259 272 242T282 192Q277 163 260 132T198 72Q170 54 157 38T143 1Q143 -17 158 -28T202 -40Q230 -40 254 -36T308 -18Q340 -5 362 -11T397 -34T410 -74T399 -118T359 -152Q313 -175 264 -183T170 -191Z" />
<glyph unicode="&#xc0;" glyph-name="Agrave" horiz-adv-x="763" d="M67 -9Q34 -9 13 5T-13 42T1 96L349 653Q369 685 392 699T453 714Q526 714 549 639L714 99Q731 45 708 18T643 -9Q603 -9 582 9T550 70L532 143H215L156 42Q142 17 120 4T67 -9ZM433 513L298
284H495L435 513H433ZM392 776L324 852Q304 873 304 894T318 931T351 954T392 954T429 921L479 838Q492 817 487 798T466 767T430 756T392 776Z" />
<glyph unicode="&#xc1;" glyph-name="Aacute" horiz-adv-x="763" d="M67 -9Q34 -9 13 5T-13 42T1 96L349 653Q369 685 392 699T453 714Q526 714 549 639L714 99Q731 45 708 18T643 -9Q603 -9 582 9T550 70L532 143H215L156 42Q142 17 120 4T67 -9ZM433 513L298
284H495L435 513H433ZM531 772Q513 755 493 755T459 766T442 796T452 834L521 927Q538 950 559 955T600 954T632 931T643 895T620 856L531 772Z" />
<glyph unicode="&#xc2;" glyph-name="Acircumflex" horiz-adv-x="763" d="M67 -9Q34 -9 13 5T-13 42T1 96L349 653Q369 685 392 699T453 714Q526 714 549 639L714 99Q731 45 708 18T643 -9Q603 -9 582 9T550 70L532 143H215L156 42Q142 17 120 4T67 -9ZM433 513L298
284H495L435 513H433ZM385 773Q368 756 349 755T314 764T296 790T307 825L370 903Q415 958 477 958Q510 958 533 942T574 895L616 829Q631 806 625 788T602 761T562 756T523 781L466 851L385 773Z" />
<glyph unicode="&#xc3;" glyph-name="Atilde" horiz-adv-x="763" d="M67 -9Q34 -9 13 5T-13 42T1 96L349 653Q369 685 392 699T453 714Q526 714 549 639L714 99Q731 45 708 18T643 -9Q603 -9 582 9T550 70L532 143H215L156 42Q142 17 120 4T67 -9ZM433 513L298
284H495L435 513H433ZM259 757Q240 758 231 772T229 812Q248 870 287 900T378 930Q415 930 446 917T504 890T559 876Q577 876 591 882T615 904Q628 921 639 930T671 938Q691 936 700 922T701 883Q682 824 643 795T552 765Q515 765 484 778T426 804T372 818Q354
818 339 812T315 790Q302 774 291 765T259 757Z" />
<glyph unicode="&#xc4;" glyph-name="Adieresis" horiz-adv-x="763" d="M67 -9Q34 -9 13 5T-13 42T1 96L349 653Q369 685 392 699T453 714Q526 714 549 639L714 99Q731 45 708 18T643 -9Q603 -9 582 9T550 70L532 143H215L156 42Q142 17 120 4T67 -9ZM433 513L298
284H495L435 513H433ZM565 766Q496 766 496 828Q496 870 520 898T589 926Q659 926 659 864Q659 821 635 794T565 766ZM358 766Q289 766 289 828Q289 870 313 898T383 926Q452 926 452 864Q452 821 428 794T358 766Z" />
<glyph unicode="&#xc5;" glyph-name="Aring" horiz-adv-x="763" d="M67 -9Q34 -9 13 5T-13 42T1 96L349 653Q369 685 392 699T453 714Q526 714 549 639L714 99Q731 45 708 18T643 -9Q603 -9 582 9T550 70L532 143H215L156 42Q142 17 120 4T67 -9ZM433 513L298
284H495L435 513H433ZM472 752Q434 752 404 769T356 815T338 882Q338 920 355 949T403 995T472 1013Q511 1013 541 996T589 949T607 882Q607 845 590 816T542 769T472 752ZM472 825Q497 825 513 841T529 882Q529 907 513 923T472 939Q449 939 433 923T416 882Q416
857 432 841T472 825Z" />
<glyph unicode="&#xc6;" glyph-name="AE" horiz-adv-x="1006" d="M37 -9Q-1 -9 -19 9T-37 52T-20 100L425 659Q444 684 467 694T521 705H951Q987 705 1006 690T1026 647Q1026 608 1003 586T941 563H637L646 429H884Q920 429 939 414T959 371Q959 332 937 310T875
287H654L663 142H862Q898 142 917 127T937 84Q937 45 915 23T852 0H591Q514 0 509 76L505 143H207L126 35Q92 -9 37 -9ZM481 507L313 284H497L483 507H481Z" />
<glyph unicode="&#xc7;" glyph-name="Ccedilla" horiz-adv-x="688" d="M405 -11Q307 -11 230 25T108 134T63 313Q63 398 89 471T165 599T290 685T462 716Q507 716 555 706T646 673Q673 659 682 637T687 590T668 547T632 520T585 523Q547 542 517 549T458 556Q391
556 347 525T280 440T257 320Q257 232 298 191T427 149Q452 149 480 155T536 174Q564 186 586 179T621 154T637 111T629 65T589 30Q548 9 498 -1T405 -11ZM351 -198Q330 -198 312 -196T273 -189Q253 -184 246 -170T242 -141T259 -118T292 -115Q315 -122 339 -122Q390
-122 390 -99Q390 -83 356 -83Q345 -83 333 -85Q324 -86 318 -86T307 -80Q299 -71 304 -55L327 20H411L395 -31Q439 -32 462 -50T486 -100Q486 -145 448 -171T351 -198Z" />
<glyph unicode="&#xc8;" glyph-name="Egrave" horiz-adv-x="614" d="M130 0Q79 0 57 26T42 102L123 617Q137 705 226 705H560Q596 705 615 690T634 647Q634 608 612 586T550 563H290L269 429H494Q530 429 549 414T568 371Q568 332 545 310T484 287H246L223 142H470Q506
142 525 127T544 84Q544 45 522 23T461 0H130ZM344 776L276 852Q256 873 256 894T270 931T303 954T344 954T381 921L431 838Q444 817 439 798T418 767T382 756T344 776Z" />
<glyph unicode="&#xc9;" glyph-name="Eacute" horiz-adv-x="614" d="M130 0Q79 0 57 26T42 102L123 617Q137 705 226 705H560Q596 705 615 690T634 647Q634 608 612 586T550 563H290L269 429H494Q530 429 549 414T568 371Q568 332 545 310T484 287H246L223 142H470Q506
142 525 127T544 84Q544 45 522 23T461 0H130ZM483 772Q465 755 445 755T411 766T394 796T404 834L473 927Q490 950 511 955T552 954T584 931T595 895T572 856L483 772Z" />
<glyph unicode="&#xca;" glyph-name="Ecircumflex" horiz-adv-x="614" d="M130 0Q79 0 57 26T42 102L123 617Q137 705 226 705H560Q596 705 615 690T634 647Q634 608 612 586T550 563H290L269 429H494Q530 429 549 414T568 371Q568 332 545 310T484 287H246L223
142H470Q506 142 525 127T544 84Q544 45 522 23T461 0H130ZM337 773Q320 756 301 755T266 764T248 790T259 825L322 903Q367 958 429 958Q462 958 485 942T526 895L568 829Q583 806 577 788T554 761T514 756T475 781L418 851L337 773Z" />
<glyph unicode="&#xcb;" glyph-name="Edieresis" horiz-adv-x="614" d="M130 0Q79 0 57 26T42 102L123 617Q137 705 226 705H560Q596 705 615 690T634 647Q634 608 612 586T550 563H290L269 429H494Q530 429 549 414T568 371Q568 332 545 310T484 287H246L223
142H470Q506 142 525 127T544 84Q544 45 522 23T461 0H130ZM517 766Q448 766 448 828Q448 870 472 898T541 926Q611 926 611 864Q611 821 587 794T517 766ZM310 766Q241 766 241 828Q241 870 265 898T335 926Q404 926 404 864Q404 821 380 794T310 766Z" />
<glyph unicode="&#xcc;" glyph-name="Igrave" horiz-adv-x="312" d="M119 -9Q72 -9 53 19T41 99L124 623Q139 714 229 714Q275 714 294 686T305 606L222 83Q208 -9 119 -9ZM168 776L100 852Q80 873 80 894T94 931T127 954T168 954T205 921L255 838Q268 817 263
798T242 767T206 756T168 776Z" />
<glyph unicode="&#xcd;" glyph-name="Iacute" horiz-adv-x="312" d="M119 -9Q72 -9 53 19T41 99L124 623Q139 714 229 714Q275 714 294 686T305 606L222 83Q208 -9 119 -9ZM307 772Q289 755 269 755T235 766T218 796T228 834L297 927Q314 950 335 955T376 954T408
931T419 895T396 856L307 772Z" />
<glyph unicode="&#xce;" glyph-name="Icircumflex" horiz-adv-x="312" d="M119 -9Q72 -9 53 19T41 99L124 623Q139 714 229 714Q275 714 294 686T305 606L222 83Q208 -9 119 -9ZM161 773Q144 756 125 755T90 764T72 790T83 825L146 903Q191 958 253 958Q286 958
309 942T350 895L392 829Q407 806 401 788T378 761T338 756T299 781L242 851L161 773Z" />
<glyph unicode="&#xcf;" glyph-name="Idieresis" horiz-adv-x="312" d="M119 -9Q72 -9 53 19T41 99L124 623Q139 714 229 714Q275 714 294 686T305 606L222 83Q208 -9 119 -9ZM341 766Q272 766 272 828Q272 870 296 898T365 926Q435 926 435 864Q435 821 411 794T341
766ZM134 766Q65 766 65 828Q65 870 89 898T159 926Q228 926 228 864Q228 821 204 794T134 766Z" />
<glyph unicode="&#xd0;" glyph-name="Eth" horiz-adv-x="786" d="M129 0Q80 0 57 27T42 102L123 617Q138 705 226 705H387Q565 705 661 623T758 396Q759 283 712 193T574 52T349 0H129ZM232 149H351Q458 149 512 215T567 393Q567 472 522 514T387 556H297L232
149ZM58 291Q24 291 6 304T-13 344Q-13 380 8 400T66 421H385Q419 421 438 407T457 368Q457 332 436 312T377 291H58Z" />
<glyph unicode="&#xd1;" glyph-name="Ntilde" horiz-adv-x="757" d="M115 -9Q74 -9 53 17T40 91L126 637Q133 675 155 694T210 714Q245 714 264 701T301 658L529 284L583 630Q597 714 681 714Q721 714 740 688T752 614L665 69Q652 -9 586 -9Q551 -9 530 4T489
49L263 421L208 75Q201 32 179 12T115 -9ZM255 757Q236 758 227 772T225 812Q244 870 283 900T374 930Q411 930 442 917T500 890T555 876Q573 876 587 882T611 904Q624 921 635 930T667 938Q687 936 696 922T697 883Q678 824 639 795T548 765Q511 765 480 778T422
804T368 818Q350 818 335 812T311 790Q298 774 287 765T255 757Z" />
<glyph unicode="&#xd2;" glyph-name="Ograve" horiz-adv-x="807" d="M396 -11Q295 -11 220 26T104 134T62 305Q62 427 110 519T244 664T445 716Q546 716 621 679T737 571T779 401Q779 278 731 186T597 41T396 -11ZM398 143Q458 143 500 175T566 264T589 397Q589
481 550 521T442 562Q383 562 341 530T276 441T253 308Q253 224 292 184T398 143ZM401 776L333 852Q313 873 313 894T327 931T360 954T401 954T438 921L488 838Q501 817 496 798T475 767T439 756T401 776Z" />
<glyph unicode="&#xd3;" glyph-name="Oacute" horiz-adv-x="807" d="M396 -11Q295 -11 220 26T104 134T62 305Q62 427 110 519T244 664T445 716Q546 716 621 679T737 571T779 401Q779 278 731 186T597 41T396 -11ZM398 143Q458 143 500 175T566 264T589 397Q589
481 550 521T442 562Q383 562 341 530T276 441T253 308Q253 224 292 184T398 143ZM540 772Q522 755 502 755T468 766T451 796T461 834L530 927Q547 950 568 955T609 954T641 931T652 895T629 856L540 772Z" />
<glyph unicode="&#xd4;" glyph-name="Ocircumflex" horiz-adv-x="807" d="M396 -11Q295 -11 220 26T104 134T62 305Q62 427 110 519T244 664T445 716Q546 716 621 679T737 571T779 401Q779 278 731 186T597 41T396 -11ZM398 143Q458 143 500 175T566 264T589 397Q589
481 550 521T442 562Q383 562 341 530T276 441T253 308Q253 224 292 184T398 143ZM394 773Q377 756 358 755T323 764T305 790T316 825L379 903Q424 958 486 958Q519 958 542 942T583 895L625 829Q640 806 634 788T611 761T571 756T532 781L475 851L394 773Z" />
<glyph unicode="&#xd5;" glyph-name="Otilde" horiz-adv-x="807" d="M396 -11Q295 -11 220 26T104 134T62 305Q62 427 110 519T244 664T445 716Q546 716 621 679T737 571T779 401Q779 278 731 186T597 41T396 -11ZM398 143Q458 143 500 175T566 264T589 397Q589
481 550 521T442 562Q383 562 341 530T276 441T253 308Q253 224 292 184T398 143ZM268 757Q249 758 240 772T238 812Q257 870 296 900T387 930Q424 930 455 917T513 890T568 876Q586 876 600 882T624 904Q637 921 648 930T680 938Q700 936 709 922T710 883Q691
824 652 795T561 765Q524 765 493 778T435 804T381 818Q363 818 348 812T324 790Q311 774 300 765T268 757Z" />
<glyph unicode="&#xd6;" glyph-name="Odieresis" horiz-adv-x="807" d="M396 -11Q295 -11 220 26T104 134T62 305Q62 427 110 519T244 664T445 716Q546 716 621 679T737 571T779 401Q779 278 731 186T597 41T396 -11ZM398 143Q458 143 500 175T566 264T589 397Q589
481 550 521T442 562Q383 562 341 530T276 441T253 308Q253 224 292 184T398 143ZM574 766Q505 766 505 828Q505 870 529 898T598 926Q668 926 668 864Q668 821 644 794T574 766ZM367 766Q298 766 298 828Q298 870 322 898T392 926Q461 926 461 864Q461 821 437
794T367 766Z" />
<glyph unicode="&#xd7;" glyph-name="multiply" horiz-adv-x="600" d="M179 88Q156 66 133 68T93 88T77 128T98 172L223 288L118 401Q97 424 99 447T120 487T162 504T208 481L311 370L435 485Q458 506 481 504T521 485T537 445T516 401L391 285L496 170Q517 147
515 124T494 84T452 68T406 90L302 203L179 88Z" />
<glyph unicode="&#xd8;" glyph-name="Oslash" horiz-adv-x="807" d="M396 -11Q295 -11 220 26T104 134T62 305Q62 427 110 519T244 664T445 716Q546 716 621 679T737 571T779 401Q779 278 731 186T597 41T396 -11ZM398 143Q458 143 500 175T566 264T589 397Q589
481 550 521T442 562Q383 562 341 530T276 441T253 308Q253 224 292 184T398 143ZM216 -26Q196 -52 171 -54T125 -42T99 -2T112 50L177 137L243 210L515 569L557 643L623 731Q643 758 668 760T714 747T740 708T726 656L662 570L596 496L324 138L282 64L216 -26Z"
/>
<glyph unicode="&#xd9;" glyph-name="Ugrave" horiz-adv-x="748" d="M349 -11Q258 -11 189 24T86 133T71 318L120 629Q133 714 220 714Q266 714 287 688T301 613L252 308Q240 230 267 186T364 142Q426 142 464 176T513 281L568 629Q582 714 668 714Q712 714 733
688T747 614L696 290Q673 144 592 67T349 -11ZM385 776L317 852Q297 873 297 894T311 931T344 954T385 954T422 921L472 838Q485 817 480 798T459 767T423 756T385 776Z" />
<glyph unicode="&#xda;" glyph-name="Uacute" horiz-adv-x="748" d="M349 -11Q258 -11 189 24T86 133T71 318L120 629Q133 714 220 714Q266 714 287 688T301 613L252 308Q240 230 267 186T364 142Q426 142 464 176T513 281L568 629Q582 714 668 714Q712 714 733
688T747 614L696 290Q673 144 592 67T349 -11ZM524 772Q506 755 486 755T452 766T435 796T445 834L514 927Q531 950 552 955T593 954T625 931T636 895T613 856L524 772Z" />
<glyph unicode="&#xdb;" glyph-name="Ucircumflex" horiz-adv-x="748" d="M349 -11Q258 -11 189 24T86 133T71 318L120 629Q133 714 220 714Q266 714 287 688T301 613L252 308Q240 230 267 186T364 142Q426 142 464 176T513 281L568 629Q582 714 668 714Q712 714
733 688T747 614L696 290Q673 144 592 67T349 -11ZM378 773Q361 756 342 755T307 764T289 790T300 825L363 903Q408 958 470 958Q503 958 526 942T567 895L609 829Q624 806 618 788T595 761T555 756T516 781L459 851L378 773Z" />
<glyph unicode="&#xdc;" glyph-name="Udieresis" horiz-adv-x="748" d="M349 -11Q258 -11 189 24T86 133T71 318L120 629Q133 714 220 714Q266 714 287 688T301 613L252 308Q240 230 267 186T364 142Q426 142 464 176T513 281L568 629Q582 714 668 714Q712 714
733 688T747 614L696 290Q673 144 592 67T349 -11ZM558 766Q489 766 489 828Q489 870 513 898T582 926Q652 926 652 864Q652 821 628 794T558 766ZM351 766Q282 766 282 828Q282 870 306 898T376 926Q445 926 445 864Q445 821 421 794T351 766Z" />
<glyph unicode="&#xdd;" glyph-name="Yacute" horiz-adv-x="645" d="M282 -9Q238 -9 219 19T207 98L241 312L94 586Q77 619 81 648T108 695T168 714Q199 714 220 700T261 645L349 475L500 656Q527 689 549 701T602 714Q638 714 659 694T680 645T656 586L425 313L388
82Q373 -9 282 -9ZM459 772Q441 755 421 755T387 766T370 796T380 834L449 927Q466 950 487 955T528 954T560 931T571 895T548 856L459 772Z" />
<glyph unicode="&#xde;" glyph-name="Thorn" horiz-adv-x="679" d="M117 -9Q73 -9 53 19T41 99L123 615Q137 706 230 706Q273 706 294 685T308 629L303 598H421Q548 598 612 544T676 395Q676 271 601 204T381 136H231L222 82Q208 -9 117 -9ZM253 278H389Q501 278
501 378Q501 419 476 438T396 457H281L253 278Z" />
<glyph unicode="&#xdf;" glyph-name="germandbls" horiz-adv-x="700" d="M450 -11Q408 -11 368 -2T294 22Q263 36 256 61T258 110T290 146T341 144Q373 130 402 124T457 117Q482 117 496 125T511 152Q511 166 496 177T438 203Q376 225 349 256T321 327Q321 374
342 408T406 479Q425 496 436 512T447 549Q447 565 435 578T395 592Q338 592 307 563T265 468L202 73Q189 -9 106 -9Q61 -9 41 16T27 88L82 439Q104 579 178 647T400 716Q465 716 513 696T586 643T612 570Q612 530 595 500T543 437Q505 401 493 387T481 360Q481
345 497 333T551 309Q610 289 640 256T671 168Q671 109 642 69T563 9T450 -11Z" />
<glyph unicode="&#xe0;" glyph-name="agrave" horiz-adv-x="568" d="M185 -11Q137 -11 99 11T39 68T16 145Q16 223 83 258T291 294H359L360 303Q366 336 346 355T279 374Q223 374 163 351Q130 340 108 352T79 389T86 438T139 476Q184 491 225 497T304 503Q395
503 446 470T514 382T521 261L493 79Q479 -9 397 -9Q361 -9 343 11T327 73Q303 28 266 9T185 -11ZM247 105Q286 105 311 128T342 188L345 210H291Q235 210 211 198T186 157Q186 132 203 119T247 105ZM259 572L187 676Q169 702 171 725T189 763T227 783T270 776T306
733L358 618Q368 595 360 577T334 549T296 544T259 572Z" />
<glyph unicode="&#xe1;" glyph-name="aacute" horiz-adv-x="568" d="M185 -11Q137 -11 99 11T39 68T16 145Q16 223 83 258T291 294H359L360 303Q366 336 346 355T279 374Q223 374 163 351Q130 340 108 352T79 389T86 438T139 476Q184 491 225 497T304 503Q395
503 446 470T514 382T521 261L493 79Q479 -9 397 -9Q361 -9 343 11T327 73Q303 28 266 9T185 -11ZM247 105Q286 105 311 128T342 188L345 210H291Q235 210 211 198T186 157Q186 132 203 119T247 105ZM391 563Q374 545 355 543T321 552T302 581T312 621L394 751Q410
775 430 781T470 781T502 758T515 721T496 679L391 563Z" />
<glyph unicode="&#xe2;" glyph-name="acircumflex" horiz-adv-x="568" d="M185 -11Q137 -11 99 11T39 68T16 145Q16 223 83 258T291 294H359L360 303Q366 336 346 355T279 374Q223 374 163 351Q130 340 108 352T79 389T86 438T139 476Q184 491 225 497T304 503Q395
503 446 470T514 382T521 261L493 79Q479 -9 397 -9Q361 -9 343 11T327 73Q303 28 266 9T185 -11ZM247 105Q286 105 311 128T342 188L345 210H291Q235 210 211 198T186 157Q186 132 203 119T247 105ZM480 615Q491 592 483 575T458 549T423 544T392 568L334 670L251
565Q236 547 218 544T184 550T164 576T173 615L241 720Q260 750 284 767T341 784Q406 784 433 722L480 615Z" />
<glyph unicode="&#xe3;" glyph-name="atilde" horiz-adv-x="568" d="M185 -11Q137 -11 99 11T39 68T16 145Q16 223 83 258T291 294H359L360 303Q366 336 346 355T279 374Q223 374 163 351Q130 340 108 352T79 389T86 438T139 476Q184 491 225 497T304 503Q395
503 446 470T514 382T521 261L493 79Q479 -9 397 -9Q361 -9 343 11T327 73Q303 28 266 9T185 -11ZM247 105Q286 105 311 128T342 188L345 210H291Q235 210 211 198T186 157Q186 132 203 119T247 105ZM164 574Q144 576 134 588T129 623Q144 683 180 715T266 747Q292
747 310 739T344 721T375 702T411 694Q448 694 463 724Q472 740 483 748T514 755Q534 754 544 742T549 707Q534 646 498 614T411 582Q378 582 355 595T311 622T267 636Q230 636 215 606Q206 590 195 582T164 574Z" />
<glyph unicode="&#xe4;" glyph-name="adieresis" horiz-adv-x="568" d="M185 -11Q137 -11 99 11T39 68T16 145Q16 223 83 258T291 294H359L360 303Q366 336 346 355T279 374Q223 374 163 351Q130 340 108 352T79 389T86 438T139 476Q184 491 225 497T304 503Q395
503 446 470T514 382T521 261L493 79Q479 -9 397 -9Q361 -9 343 11T327 73Q303 28 266 9T185 -11ZM247 105Q286 105 311 128T342 188L345 210H291Q235 210 211 198T186 157Q186 132 203 119T247 105ZM435 577Q366 577 366 639Q366 682 390 709T459 737Q528 737
528 676Q528 632 505 605T435 577ZM229 577Q159 577 159 639Q159 682 183 709T253 737Q322 737 322 676Q322 632 298 605T229 577Z" />
<glyph unicode="&#xe5;" glyph-name="aring" horiz-adv-x="568" d="M185 -11Q137 -11 99 11T39 68T16 145Q16 223 83 258T291 294H359L360 303Q366 336 346 355T279 374Q223 374 163 351Q130 340 108 352T79 389T86 438T139 476Q184 491 225 497T304 503Q395 503
446 470T514 382T521 261L493 79Q479 -9 397 -9Q361 -9 343 11T327 73Q303 28 266 9T185 -11ZM247 105Q286 105 311 128T342 188L345 210H291Q235 210 211 198T186 157Q186 132 203 119T247 105ZM347 545Q309 545 278 562T230 608T212 675Q212 712 229 741T278
788T347 806Q385 806 415 789T464 742T482 675Q482 638 464 609T416 562T347 545ZM347 618Q371 618 387 634T403 675Q403 700 387 716T347 732Q322 732 306 716T290 675Q290 650 306 634T347 618Z" />
<glyph unicode="&#xe6;" glyph-name="ae" horiz-adv-x="870" d="M221 -11Q168 -11 121 5T45 57T16 145Q16 223 83 258T291 294H355L356 301Q361 334 344 354T279 374Q223 374 163 351Q130 340 108 352T79 389T86 439T139 476Q184 491 225 497T304 503Q414 503
463 444Q496 474 537 488T626 503Q698 503 743 479T813 416T843 334T844 252L842 239Q840 223 831 217T807 210H513Q515 166 544 143T625 120Q647 120 675 125T726 140Q759 154 779 142T804 106T798 57T756 19Q721 3 682 -4T605 -11Q534 -11 483 13T404 83Q377
34 328 12T221 -11ZM624 386Q582 386 558 360T524 294H704Q707 333 688 359T624 386ZM247 108Q286 108 309 128T337 186L341 210H292Q237 210 212 197T186 155Q186 134 202 121T247 108Z" />
<glyph unicode="&#xe7;" glyph-name="ccedilla" horiz-adv-x="484" d="M285 -11Q158 -11 93 52T28 219Q28 293 60 358T159 463T325 503Q360 503 386 499T439 485Q468 476 480 458T493 418T482 380T453 354T413 354Q374 369 340 369Q292 369 264 348T223 292T210
222Q210 178 234 151T314 123Q326 123 344 127T384 139Q408 147 426 134T450 97T446 48T400 11Q377 1 346 -5T285 -11ZM227 -198Q206 -198 188 -196T149 -189Q129 -184 122 -170T118 -141T135 -118T168 -115Q191 -122 215 -122Q266 -122 266 -99Q266 -83 232 -83Q221
-83 209 -85Q200 -86 194 -86T183 -80Q175 -71 180 -55L203 20H287L271 -31Q315 -32 338 -50T362 -100Q362 -145 324 -171T227 -198Z" />
<glyph unicode="&#xe8;" glyph-name="egrave" horiz-adv-x="555" d="M291 -11Q212 -11 153 17T61 98T28 219Q28 304 65 368T167 467T311 503Q396 503 447 467T517 372T529 250Q526 225 515 218T486 210H193Q195 166 226 143T311 120Q334 120 362 125T412 140Q446
154 466 142T491 106T485 56T443 19Q407 3 368 -4T291 -11ZM309 387Q264 387 239 360T204 294H393Q395 335 375 361T309 387ZM272 572L200 676Q182 702 184 725T202 763T240 783T283 776T319 733L371 618Q381 595 373 577T347 549T309 544T272 572Z" />
<glyph unicode="&#xe9;" glyph-name="eacute" horiz-adv-x="555" d="M291 -11Q212 -11 153 17T61 98T28 219Q28 304 65 368T167 467T311 503Q396 503 447 467T517 372T529 250Q526 225 515 218T486 210H193Q195 166 226 143T311 120Q334 120 362 125T412 140Q446
154 466 142T491 106T485 56T443 19Q407 3 368 -4T291 -11ZM309 387Q264 387 239 360T204 294H393Q395 335 375 361T309 387ZM404 563Q387 545 368 543T334 552T315 581T325 621L407 751Q423 775 443 781T483 781T515 758T528 721T509 679L404 563Z" />
<glyph unicode="&#xea;" glyph-name="ecircumflex" horiz-adv-x="555" d="M291 -11Q212 -11 153 17T61 98T28 219Q28 304 65 368T167 467T311 503Q396 503 447 467T517 372T529 250Q526 225 515 218T486 210H193Q195 166 226 143T311 120Q334 120 362 125T412
140Q446 154 466 142T491 106T485 56T443 19Q407 3 368 -4T291 -11ZM309 387Q264 387 239 360T204 294H393Q395 335 375 361T309 387ZM493 615Q504 592 496 575T471 549T436 544T405 568L347 670L264 565Q249 547 231 544T197 550T177 576T186 615L254 720Q273
750 297 767T354 784Q419 784 446 722L493 615Z" />
<glyph unicode="&#xeb;" glyph-name="edieresis" horiz-adv-x="555" d="M291 -11Q212 -11 153 17T61 98T28 219Q28 304 65 368T167 467T311 503Q396 503 447 467T517 372T529 250Q526 225 515 218T486 210H193Q195 166 226 143T311 120Q334 120 362 125T412 140Q446
154 466 142T491 106T485 56T443 19Q407 3 368 -4T291 -11ZM309 387Q264 387 239 360T204 294H393Q395 335 375 361T309 387ZM448 577Q379 577 379 639Q379 682 403 709T472 737Q541 737 541 676Q541 632 518 605T448 577ZM242 577Q172 577 172 639Q172 682 196
709T266 737Q335 737 335 676Q335 632 311 605T242 577Z" />
<glyph unicode="&#xec;" glyph-name="igrave" horiz-adv-x="281" d="M100 -9Q58 -9 39 18T27 94L78 413Q92 501 180 501Q222 501 241 474T253 398L202 79Q188 -9 100 -9ZM121 572L49 676Q31 702 33 725T51 763T89 783T132 776T168 733L220 618Q230 595 222 577T196
549T158 544T121 572Z" />
<glyph unicode="&#xed;" glyph-name="iacute" horiz-adv-x="281" d="M100 -9Q58 -9 39 18T27 94L78 413Q92 501 180 501Q222 501 241 474T253 398L202 79Q188 -9 100 -9ZM253 563Q236 545 217 543T183 552T164 581T174 621L256 751Q272 775 292 781T332 781T364
758T377 721T358 679L253 563Z" />
<glyph unicode="&#xee;" glyph-name="icircumflex" horiz-adv-x="281" d="M100 -9Q58 -9 39 18T27 94L78 413Q92 501 180 501Q222 501 241 474T253 398L202 79Q188 -9 100 -9ZM342 615Q353 592 345 575T320 549T285 544T254 568L196 670L113 565Q98 547 80 544T46
550T26 576T35 615L103 720Q122 750 146 767T203 784Q268 784 295 722L342 615Z" />
<glyph unicode="&#xef;" glyph-name="idieresis" horiz-adv-x="281" d="M100 -9Q58 -9 39 18T27 94L78 413Q92 501 180 501Q222 501 241 474T253 398L202 79Q188 -9 100 -9ZM297 577Q228 577 228 639Q228 682 252 709T321 737Q390 737 390 676Q390 632 367 605T297
577ZM91 577Q21 577 21 639Q21 682 45 709T115 737Q184 737 184 676Q184 632 160 605T91 577Z" />
<glyph unicode="&#xf0;" glyph-name="eth" horiz-adv-x="606" d="M273 -11Q201 -11 145 16T57 90T24 199Q24 272 58 328T151 415T282 447Q325 447 361 436T422 397Q414 439 389 476T329 541L197 482Q178 473 164 480T143 501T140 531T165 555L242 589Q230 594
217 598T193 605Q163 612 154 631T153 671T183 704T241 709Q278 700 317 686T386 654L500 706Q520 715 534 708T555 687T558 657T533 632L461 600Q526 540 555 466T585 320Q585 223 549 149T442 32T273 -11ZM290 122Q334 122 363 153T392 239Q392 274 369 296T305
318Q261 318 232 287T203 201Q203 165 226 144T290 122Z" />
<glyph unicode="&#xf1;" glyph-name="ntilde" horiz-adv-x="606" d="M101 -8Q59 -8 40 19T28 96L78 413Q92 501 180 501Q217 501 236 481T253 422Q307 503 416 503Q495 503 538 453T564 291L531 81Q517 -8 428 -8Q386 -8 367 19T355 96L385 288Q391 327 380 347T334
367Q293 367 267 340T232 262L203 81Q190 -8 101 -8ZM184 574Q164 576 154 588T149 623Q164 683 200 715T286 747Q312 747 330 739T364 721T395 702T431 694Q468 694 483 724Q492 740 503 748T534 755Q554 754 564 742T569 707Q554 646 518 614T431 582Q398 582
375 595T331 622T287 636Q250 636 235 606Q226 590 215 582T184 574Z" />
<glyph unicode="&#xf2;" glyph-name="ograve" horiz-adv-x="602" d="M282 -11Q161 -11 95 52T29 219Q29 290 53 343T119 432T213 485T320 503Q440 503 506 440T573 274Q573 202 549 149T483 60T389 7T282 -11ZM285 120Q336 120 365 165T394 279Q394 324 374 348T316
372Q266 372 237 328T208 213Q208 168 228 144T285 120ZM282 572L210 676Q192 702 194 725T212 763T250 783T293 776T329 733L381 618Q391 595 383 577T357 549T319 544T282 572Z" />
<glyph unicode="&#xf3;" glyph-name="oacute" horiz-adv-x="602" d="M282 -11Q161 -11 95 52T29 219Q29 290 53 343T119 432T213 485T320 503Q440 503 506 440T573 274Q573 202 549 149T483 60T389 7T282 -11ZM285 120Q336 120 365 165T394 279Q394 324 374 348T316
372Q266 372 237 328T208 213Q208 168 228 144T285 120ZM414 563Q397 545 378 543T344 552T325 581T335 621L417 751Q433 775 453 781T493 781T525 758T538 721T519 679L414 563Z" />
<glyph unicode="&#xf4;" glyph-name="ocircumflex" horiz-adv-x="602" d="M282 -11Q161 -11 95 52T29 219Q29 290 53 343T119 432T213 485T320 503Q440 503 506 440T573 274Q573 202 549 149T483 60T389 7T282 -11ZM285 120Q336 120 365 165T394 279Q394 324 374
348T316 372Q266 372 237 328T208 213Q208 168 228 144T285 120ZM503 615Q514 592 506 575T481 549T446 544T415 568L357 670L274 565Q259 547 241 544T207 550T187 576T196 615L264 720Q283 750 307 767T364 784Q429 784 456 722L503 615Z" />
<glyph unicode="&#xf5;" glyph-name="otilde" horiz-adv-x="602" d="M282 -11Q161 -11 95 52T29 219Q29 290 53 343T119 432T213 485T320 503Q440 503 506 440T573 274Q573 202 549 149T483 60T389 7T282 -11ZM285 120Q336 120 365 165T394 279Q394 324 374 348T316
372Q266 372 237 328T208 213Q208 168 228 144T285 120ZM187 574Q167 576 157 588T152 623Q167 683 203 715T289 747Q315 747 333 739T367 721T398 702T434 694Q471 694 486 724Q495 740 506 748T537 755Q557 754 567 742T572 707Q557 646 521 614T434 582Q401
582 378 595T334 622T290 636Q253 636 238 606Q229 590 218 582T187 574Z" />
<glyph unicode="&#xf6;" glyph-name="odieresis" horiz-adv-x="602" d="M282 -11Q161 -11 95 52T29 219Q29 290 53 343T119 432T213 485T320 503Q440 503 506 440T573 274Q573 202 549 149T483 60T389 7T282 -11ZM285 120Q336 120 365 165T394 279Q394 324 374
348T316 372Q266 372 237 328T208 213Q208 168 228 144T285 120ZM458 577Q389 577 389 639Q389 682 413 709T482 737Q551 737 551 676Q551 632 528 605T458 577ZM252 577Q182 577 182 639Q182 682 206 709T276 737Q345 737 345 676Q345 632 321 605T252 577Z" />
<glyph unicode="&#xf7;" glyph-name="divide" horiz-adv-x="600" d="M320 413Q292 413 277 427T261 467Q261 504 282 527T342 551Q370 551 385 537T401 497Q401 461 380 437T320 413ZM115 228Q53 228 53 276Q53 308 71 327T123 346H497Q560 346 560 298Q560 266
542 247T490 228H115ZM259 23Q231 23 216 37T200 78Q200 114 221 137T281 161Q340 161 340 108Q340 71 319 47T259 23Z" />
<glyph unicode="&#xf8;" glyph-name="oslash" horiz-adv-x="602" d="M148 -35Q134 -53 117 -54T85 -44T68 -16T79 22L99 49Q29 111 29 219Q29 290 53 343T119 432T213 485T320 503Q379 503 427 487L456 526Q469 544 486 545T517 535T534 505T523 468L504 443Q573
381 573 274Q573 202 549 149T483 60T389 7T282 -11Q224 -11 177 4L148 -35ZM189 210Q189 191 193 175L347 380Q331 384 312 384Q257 384 223 338T189 210ZM290 108Q345 108 379 154T413 282Q413 300 409 315L257 111Q272 108 290 108Z" />
<glyph unicode="&#xf9;" glyph-name="ugrave" horiz-adv-x="601" d="M189 -11Q137 -11 100 11T46 80T42 201L77 419Q90 501 173 501Q218 501 239 476T253 404L221 204Q215 165 226 145T270 125Q309 125 335 153T369 231L399 419Q412 501 495 501Q540 501 560 476T574
404L522 73Q509 -9 426 -9Q339 -9 352 77Q324 32 282 11T189 -11ZM279 572L207 676Q189 702 191 725T209 763T247 783T290 776T326 733L378 618Q388 595 380 577T354 549T316 544T279 572Z" />
<glyph unicode="&#xfa;" glyph-name="uacute" horiz-adv-x="601" d="M189 -11Q137 -11 100 11T46 80T42 201L77 419Q90 501 173 501Q218 501 239 476T253 404L221 204Q215 165 226 145T270 125Q309 125 335 153T369 231L399 419Q412 501 495 501Q540 501 560 476T574
404L522 73Q509 -9 426 -9Q339 -9 352 77Q324 32 282 11T189 -11ZM411 563Q394 545 375 543T341 552T322 581T332 621L414 751Q430 775 450 781T490 781T522 758T535 721T516 679L411 563Z" />
<glyph unicode="&#xfb;" glyph-name="ucircumflex" horiz-adv-x="601" d="M189 -11Q137 -11 100 11T46 80T42 201L77 419Q90 501 173 501Q218 501 239 476T253 404L221 204Q215 165 226 145T270 125Q309 125 335 153T369 231L399 419Q412 501 495 501Q540 501
560 476T574 404L522 73Q509 -9 426 -9Q339 -9 352 77Q324 32 282 11T189 -11ZM500 615Q511 592 503 575T478 549T443 544T412 568L354 670L271 565Q256 547 238 544T204 550T184 576T193 615L261 720Q280 750 304 767T361 784Q426 784 453 722L500 615Z" />
<glyph unicode="&#xfc;" glyph-name="udieresis" horiz-adv-x="601" d="M189 -11Q137 -11 100 11T46 80T42 201L77 419Q90 501 173 501Q218 501 239 476T253 404L221 204Q215 165 226 145T270 125Q309 125 335 153T369 231L399 419Q412 501 495 501Q540 501 560
476T574 404L522 73Q509 -9 426 -9Q339 -9 352 77Q324 32 282 11T189 -11ZM455 577Q386 577 386 639Q386 682 410 709T479 737Q548 737 548 676Q548 632 525 605T455 577ZM249 577Q179 577 179 639Q179 682 203 709T273 737Q342 737 342 676Q342 632 318 605T249
577Z" />
<glyph unicode="&#xfd;" glyph-name="yacute" horiz-adv-x="541" d="M130 -189Q80 -189 64 -157T73 -85L147 35L50 383Q35 435 58 468T129 501Q165 501 184 484T213 422L261 213L389 439Q407 473 428 487T485 501Q535 501 551 470T543 397L227 -126Q207 -160 186
-174T130 -189ZM367 563Q350 545 331 543T297 552T278 581T288 621L370 751Q386 775 406 781T446 781T478 758T491 721T472 679L367 563Z" />
<glyph unicode="&#xfe;" glyph-name="thorn" horiz-adv-x="620" d="M72 -189Q30 -189 11 -162T-1 -86L112 625Q126 714 214 714Q256 714 275 687T287 611L259 431Q317 503 411 503Q494 503 543 446T593 289Q593 203 562 135T475 28T344 -11Q296 -11 259 8T201
65L174 -102Q160 -189 72 -189ZM306 120Q356 120 385 165T414 279Q414 324 394 348T337 372Q286 372 257 327T228 213Q228 168 248 144T306 120Z" />
<glyph unicode="&#xff;" glyph-name="ydieresis" horiz-adv-x="541" d="M130 -189Q80 -189 64 -157T73 -85L147 35L50 383Q35 435 58 468T129 501Q165 501 184 484T213 422L261 213L389 439Q407 473 428 487T485 501Q535 501 551 470T543 397L227 -126Q207 -160
186 -174T130 -189ZM411 577Q342 577 342 639Q342 682 366 709T435 737Q504 737 504 676Q504 632 481 605T411 577ZM205 577Q135 577 135 639Q135 682 159 709T229 737Q298 737 298 676Q298 632 274 605T205 577Z" />
<glyph unicode="&#x2013;" glyph-name="endash" horiz-adv-x="500" d="M50 218Q20 218 7 229T-6 259Q-6 285 12 302T56 319H456Q486 319 499 307T513 277Q513 251 495 235T451 218H50Z" />
<glyph unicode="&#x2014;" glyph-name="emdash" horiz-adv-x="1000" d="M50 218Q20 218 7 229T-6 259Q-6 285 11 302T56 319H956Q986 319 999 307T1013 277Q1013 251 995 235T951 218H50Z" />
<glyph unicode="&#x2018;" glyph-name="quoteleft" horiz-adv-x="272" d="M175 682Q195 700 214 700T246 690T259 660T240 624Q205 592 190 562Q226 556 247 531T268 468Q268 425 242 399T170 372Q124 372 100 401T76 475Q76 536 99 584T175 682Z" />
<glyph unicode="&#x2019;" glyph-name="quoteright" horiz-adv-x="272" d="M189 400Q170 382 151 382T119 392T106 422T126 458Q160 490 175 519Q139 526 118 551T97 614Q97 657 123 684T195 711Q241 711 265 682T289 607Q289 546 266 498T189 400Z" />
<glyph unicode="&#x201a;" glyph-name="quotesinglbase" horiz-adv-x="272" d="M107 -123Q87 -141 68 -141T36 -131T23 -101T43 -65Q77 -33 92 -4Q56 3 35 28T14 92Q14 134 40 161T112 188Q158 188 182 159T206 85Q206 23 183 -25T107 -123Z" />
<glyph unicode="&#x201c;" glyph-name="quotedblleft" horiz-adv-x="502" d="M175 682Q195 700 214 700T246 690T259 660T240 624Q205 592 190 562Q226 556 247 531T268 468Q268 425 242 399T170 372Q124 372 100 401T76 475Q76 536 99 584T175 682ZM405 682Q425
700 444 700T476 690T489 660T470 624Q435 592 420 562Q456 556 477 531T498 468Q498 425 472 399T400 372Q354 372 330 401T306 475Q306 536 329 584T405 682Z" />
<glyph unicode="&#x201d;" glyph-name="quotedblright" horiz-adv-x="502" d="M189 400Q170 382 151 382T119 392T106 422T126 458Q160 490 175 519Q139 526 118 551T97 614Q97 657 123 684T195 711Q241 711 265 682T289 607Q289 546 266 498T189 400ZM419 400Q400
382 381 382T349 392T336 422T356 458Q390 490 405 519Q369 526 348 551T327 614Q327 657 353 684T425 711Q471 711 495 682T519 607Q519 546 496 498T419 400Z" />
<glyph unicode="&#x201e;" glyph-name="quotedblbase" horiz-adv-x="502" d="M107 -123Q87 -141 68 -141T36 -131T23 -101T43 -65Q77 -33 92 -4Q56 3 35 28T14 92Q14 134 40 161T112 188Q158 188 182 159T206 85Q206 23 183 -25T107 -123ZM337 -123Q317 -141 298
-141T266 -131T253 -101T273 -65Q307 -33 322 -4Q286 3 265 28T244 92Q244 134 270 161T342 188Q388 188 412 159T436 85Q436 23 413 -25T337 -123Z" />
<glyph unicode="&#x2022;" glyph-name="bullet" horiz-adv-x="524" d="M265 88Q216 88 175 111T109 175T84 265Q84 311 107 351T172 417T265 443Q313 443 354 420T421 357T446 265Q446 216 422 176T356 112T265 88Z" />
<glyph unicode="&#x2039;" glyph-name="guilsinglleft" horiz-adv-x="320" d="M200 82Q167 67 140 78T99 120L60 207Q47 235 50 265T76 323L170 437Q187 458 211 463T259 456Q284 443 288 416T264 347L203 260L231 167Q239 138 232 115T200 82Z" />
<glyph unicode="&#x203a;" glyph-name="guilsinglright" horiz-adv-x="320" d="M67 79Q42 92 38 119T62 187L123 275L95 368Q87 397 94 419T125 452Q159 467 185 456T227 414L266 328Q279 299 276 270T250 211L156 97Q138 76 114 72T67 79Z" />
</font>
</defs>
</svg>
