<?xml version="1.0" standalone="no"?>
<!DOCTYPE svg PUBLIC "-//W3C//DTD SVG 1.1//EN" "http://www.w3.org/Graphics/SVG/1.1/DTD/svg11.dtd">
<svg xmlns="http://www.w3.org/2000/svg">
<defs >
<font id="Nunito" horiz-adv-x="588" ><font-face
    font-family="Nunito SemiBold"
    units-per-em="1000"
    panose-1="0 0 0 0 0 0 0 0 0 0"
    ascent="1011"
    descent="-353"
    alphabetic="0" />
<glyph unicode=" " glyph-name="space" horiz-adv-x="264" />
<glyph unicode="!" glyph-name="exclam" horiz-adv-x="237" d="M113 194Q80 194 83 230L125 653Q131 712 189 712Q219 712 233 693T240 641L149 225Q142 194 113 194ZM91 -4Q62 -4 45 14T27 60Q27 88 44 105T91 123Q120 123 137 106T154 60Q154 32 137 14T91 -4Z" />
<glyph unicode="&quot;" glyph-name="quotedbl" horiz-adv-x="417" d="M147 415Q130 415 121 424T112 456L127 662Q128 683 143 697T183 712Q210 712 225 696T234 650L186 450Q181 431 170 423T147 415ZM333 415Q316 415 307 424T298 456L313 662Q314 683 329
697T369 712Q396 712 411 696T420 650L372 450Q367 431 356 423T333 415Z" />
<glyph unicode="#" glyph-name="numbersign" horiz-adv-x="600" d="M85 -7Q65 -7 59 6T61 43L109 177H69Q59 177 45 182T30 208Q30 246 72 246H134L212 467H135Q126 467 112 471T97 498Q97 515 107 525T139 536H236L285 677Q298 712 331 712Q350 712 356 699T354
663L309 536H454L503 677Q516 712 549 712Q569 712 575 699T573 663L528 536H567Q577 536 591 532T606 506Q606 488 595 478T564 467H503L425 246H501Q511 246 525 242T540 215Q540 198 529 188T497 177H401L347 28Q335 -7 302 -7Q283 -7 277 6T279 43L327 177H183L130
28Q117 -7 85 -7ZM207 246H351L430 467H285L207 246Z" />
<glyph unicode="$" glyph-name="dollar" horiz-adv-x="600" d="M256 -122Q235 -122 225 -110T218 -75L229 -4Q177 1 130 17T46 57Q27 69 24 87T28 122T53 144T91 136Q131 110 180 97T289 83Q357 83 402 111T447 191Q447 232 422 256T330 298L237 322Q167 340 125
383T83 501Q83 567 118 613T211 684T342 710L355 789Q360 824 399 824Q416 824 427 813T435 779L424 704Q463 696 501 679T571 636Q585 626 586 610T581 579T557 560T518 570Q446 622 351 622Q275 622 231 593T186 510Q186 465 208 443T278 407L371 383Q463 359
506 315T550 202Q550 139 518 95T431 26T312 -4L298 -88Q293 -122 256 -122Z" />
<glyph unicode="%" glyph-name="percent" horiz-adv-x="937" d="M277 0Q264 -18 248 -20T220 -15T204 9T214 43L693 701Q705 718 721 721T750 716T766 692T756 659L277 0ZM240 281Q167 281 127 325T86 445Q86 519 109 579T178 676T289 712Q361 712 401 668T442
548Q442 474 419 414T350 317T240 281ZM240 349Q278 349 304 376T343 449T358 546Q360 598 341 621T289 644Q250 644 224 617T185 544T170 447Q169 395 188 372T240 349ZM682 -9Q609 -9 569 35T529 154Q529 228 552 288T620 385T730 422Q803 422 843 378T884 258Q884
183 861 123T793 27T682 -9ZM682 59Q721 59 747 86T786 158T801 256Q802 308 783 331T731 354Q692 354 666 327T627 254T612 157Q611 105 630 82T682 59Z" />
<glyph unicode="&amp;" glyph-name="ampersand" horiz-adv-x="708" d="M258 -9Q161 -9 104 34T47 151Q47 205 72 249T139 327T228 387L241 394Q212 431 200 465T187 531Q187 585 212 626T283 691T389 714Q457 714 498 677T540 581Q540 535 518 499T457 433T372
377L498 211Q523 248 539 289T571 387Q582 425 618 425Q640 425 651 413T656 379Q637 304 613 252T551 149L622 60Q642 35 630 14T587 -8Q576 -8 565 -5T545 9L489 83Q443 39 385 15T258 -9ZM384 640Q337 640 309 612T281 540Q281 514 290 492T325 436Q393 472
423 504T454 577Q454 607 435 623T384 640ZM271 72Q322 72 363 89T439 141L289 334L281 329Q244 309 214 286T166 233T148 165Q148 120 179 96T271 72Z" />
<glyph unicode="&apos;" glyph-name="quotesingle" horiz-adv-x="231" d="M147 415Q130 415 121 424T112 456L127 662Q128 683 143 697T183 712Q210 712 225 696T234 650L186 450Q181 431 170 423T147 415Z" />
<glyph unicode="(" glyph-name="parenleft" horiz-adv-x="336" d="M143 -153Q98 -6 98 128Q98 234 121 336T184 528T278 691Q290 707 306 710T337 706T356 683T351 648Q282 522 244 388T206 99Q206 44 211 -12T227 -127Q231 -151 221 -165T195 -183T164 -180T143 -153Z" />
<glyph unicode=")" glyph-name="parenright" horiz-adv-x="336" d="M64 -163Q52 -179 36 -182T5 -179T-14 -157T-9 -122Q60 4 98 138T136 427Q136 482 131 538T115 653Q111 677 121 691T147 709T178 706T199 679Q244 531 244 398Q244 292 221 191T158 0T64 -163Z" />
<glyph unicode="*" glyph-name="asterisk" horiz-adv-x="452" d="M172 363Q141 383 164 419L217 502L121 498Q100 496 88 505T76 532Q76 549 88 558T121 566L218 561L165 645Q141 682 173 700Q188 709 202 703T225 677L271 586L317 677Q326 696 340 702T370 700Q401
681 378 644L324 561L422 566Q442 567 454 558T466 532Q466 514 454 505T422 498L325 502L378 419Q388 402 387 388T370 364Q355 355 341 361T317 386L271 478L224 386Q215 368 202 361T172 363Z" />
<glyph unicode="+" glyph-name="plus" horiz-adv-x="600" d="M269 33Q228 33 235 78L263 250H95Q56 250 56 280Q56 324 99 324H274L301 498Q308 535 344 535Q384 535 377 491L351 324H519Q558 324 558 294Q558 250 515 250H339L311 71Q305 33 269 33Z" />
<glyph unicode="," glyph-name="comma" horiz-adv-x="237" d="M81 -102Q63 -119 47 -115T27 -95T39 -63Q70 -32 80 -3Q56 1 42 17T27 60Q27 88 44 105T90 123Q119 123 135 104T151 53Q151 -34 81 -102Z" />
<glyph unicode="-" glyph-name="hyphen" horiz-adv-x="429" d="M111 226Q67 226 67 259Q67 279 78 293T112 307H327Q371 307 371 274Q371 254 359 240T325 226H111Z" />
<glyph unicode="." glyph-name="period" horiz-adv-x="237" d="M91 -4Q62 -4 45 14T27 60Q27 88 44 105T91 123Q120 123 137 106T154 60Q154 32 137 14T91 -4Z" />
<glyph unicode="/" glyph-name="slash" horiz-adv-x="297" d="M24 -35Q15 -54 0 -58T-29 -56T-49 -35T-46 -1L302 724Q311 743 326 747T355 745T376 724T373 690L24 -35Z" />
<glyph unicode="0" glyph-name="zero" horiz-adv-x="600" d="M288 -9Q177 -9 120 58T62 253Q62 396 97 499T196 658T347 714Q458 714 515 647T573 454Q573 310 538 206T440 47T288 -9ZM293 77Q374 77 422 177T472 472Q473 628 342 628Q262 628 213 528T163 233Q163
77 293 77Z" />
<glyph unicode="1" glyph-name="one" horiz-adv-x="600" d="M125 0Q78 0 78 38Q78 60 92 73T130 87H252L331 581L237 526Q216 513 200 518T175 539T170 571T196 601L351 694Q383 712 409 712Q430 712 440 699T446 661L355 87H459Q506 87 506 49Q506 27 492 14T454 0H125Z" />
<glyph unicode="2" glyph-name="two" horiz-adv-x="600" d="M104 0Q81 0 67 10T53 41Q53 57 61 70T88 100L332 326Q387 378 421 427T456 530Q456 576 426 601T340 626Q303 626 265 614T185 573Q166 561 150 565T126 584T120 616T141 646Q186 678 242 696T358 714Q419
714 464 693T534 633T559 545Q559 488 538 441T479 350T394 265L197 87H472Q519 87 519 51Q519 27 506 14T467 0H104Z" />
<glyph unicode="3" glyph-name="three" horiz-adv-x="600" d="M277 -9Q224 -9 167 4T60 51Q41 63 38 81T43 114T68 134T102 128Q145 99 188 89T277 79Q339 79 381 113T423 210Q423 258 391 285T298 313H239Q192 313 192 352Q192 374 206 387T244 400H304Q369 400
413 433T457 528Q457 573 425 599T340 626Q301 626 259 614T179 575Q159 563 143 567T119 586T114 617T137 648Q185 682 242 698T353 714Q419 714 465 691T534 628T558 541Q559 475 519 427T414 360Q468 342 496 301T524 205Q524 144 493 96T406 19T277 -9Z" />
<glyph unicode="4" glyph-name="four" horiz-adv-x="600" d="M378 -7Q353 -7 341 7T334 47L349 143H88Q61 143 48 155T34 186Q34 202 42 216T65 247L431 679Q445 695 458 702T490 709Q512 709 523 694T531 651L464 230H527Q569 230 569 195Q569 172 557 158T517
143H452L436 42Q428 -7 378 -7ZM362 230L412 547L145 230H362Z" />
<glyph unicode="5" glyph-name="five" horiz-adv-x="600" d="M285 -9Q236 -9 182 4T81 53Q62 66 60 83T65 116T90 136T124 129Q165 100 202 90T285 79Q332 79 369 99T427 154T449 235Q449 290 416 324T326 358Q250 358 189 299Q178 289 167 284T140 278Q121 278
110 289T103 324L157 661Q164 705 210 705H538Q585 705 585 668Q585 645 571 632T532 618H251L216 396Q246 419 283 431T358 444Q413 444 456 421T524 353T550 244Q550 167 514 110T417 22T285 -9Z" />
<glyph unicode="6" glyph-name="six" horiz-adv-x="600" d="M308 -9Q197 -9 134 62T70 255Q70 388 108 492T221 655T401 714Q450 714 497 697T583 645Q600 632 601 614T593 582T567 565T533 575Q474 626 395 626Q300 626 241 547T170 329Q194 384 247 415T359
447Q415 447 458 420T525 348T550 247Q550 174 519 116T433 25T308 -9ZM304 75Q348 75 381 96T434 155T453 239Q453 293 418 327T328 362Q284 362 250 341T198 282T179 198Q179 144 214 110T304 75Z" />
<glyph unicode="7" glyph-name="seven" horiz-adv-x="600" d="M139 -7Q109 -7 98 15T107 67L479 618H168Q119 618 119 656Q119 705 171 705H555Q584 705 596 695T608 666Q608 649 601 634T580 600L198 28Q174 -7 139 -7Z" />
<glyph unicode="8" glyph-name="eight" horiz-adv-x="600" d="M271 -9Q200 -9 147 12T64 72T34 166Q34 214 54 255T109 324T189 363Q148 382 126 419T103 507Q103 574 137 620T231 690T365 714Q430 714 479 693T556 634T584 545Q584 480 547 429T449 359Q495 343
523 304T551 209Q551 138 515 90T415 16T271 -9ZM326 398Q397 398 442 434T487 532Q487 580 453 605T361 631Q286 631 243 597T200 499Q200 450 234 424T326 398ZM276 73Q358 73 405 109T453 214Q453 265 414 290T311 316Q229 316 181 281T132 177Q132 125 171
99T276 73Z" />
<glyph unicode="9" glyph-name="nine" horiz-adv-x="600" d="M239 -9Q191 -9 141 8T51 60Q34 73 33 90T41 122T67 140T101 130Q162 79 244 79Q335 79 393 157T465 374Q440 320 387 289T276 258Q219 258 176 285T109 357T84 458Q84 531 115 589T201 680T326 714Q437
714 500 644T564 451Q564 353 543 270T481 123T379 26T239 -9ZM306 343Q351 343 384 364T436 423T455 507Q455 561 420 596T331 631Q286 631 253 609T201 550T182 466Q182 412 217 378T306 343Z" />
<glyph unicode=":" glyph-name="colon" horiz-adv-x="237" d="M150 365Q120 365 103 383T85 428Q85 457 102 474T150 492Q179 492 196 475T213 428Q213 401 196 383T150 365ZM91 -4Q62 -4 45 14T27 60Q27 88 44 105T91 123Q120 123 137 106T154 60Q154 32 137 14T91 -4Z" />
<glyph unicode=";" glyph-name="semicolon" horiz-adv-x="237" d="M150 365Q120 365 103 383T85 428Q85 457 102 474T150 492Q179 492 196 475T213 428Q213 401 196 383T150 365ZM81 -102Q63 -119 47 -115T27 -95T39 -63Q70 -32 80 -3Q56 1 42 17T27 60Q27 88
44 105T90 123Q119 123 135 104T151 53Q151 -34 81 -102Z" />
<glyph unicode="&lt;" glyph-name="less" horiz-adv-x="600" d="M473 52L100 228Q55 248 55 280Q55 301 68 316T102 340L538 520Q557 527 570 520T589 499T589 471T565 449L155 282L504 119Q521 111 525 97T524 70T505 50T473 52Z" />
<glyph unicode="=" glyph-name="equal" horiz-adv-x="600" d="M110 350Q71 350 71 380Q71 424 114 424H534Q574 424 574 394Q574 350 530 350H110ZM79 151Q40 151 40 181Q40 201 51 212T83 224H503Q542 224 542 194Q542 174 531 163T499 151H79Z" />
<glyph unicode="&gt;" glyph-name="greater" horiz-adv-x="600" d="M76 56Q57 48 44 54T25 75T25 103T49 125L458 291L110 455Q92 463 88 477T88 506T107 526T139 524L514 346Q558 325 558 294Q558 273 546 259T512 235L76 56Z" />
<glyph unicode="?" glyph-name="question" horiz-adv-x="450" d="M211 191Q193 191 185 202T180 233Q185 266 194 294T225 350T287 413Q332 452 353 481T375 548Q375 582 353 604T283 626Q242 626 206 613T135 577Q113 564 97 568T73 587T70 618T94 650Q136 682
192 698T300 714Q357 714 396 694T457 639T478 563Q478 502 443 455T353 368Q299 327 277 292T244 221Q241 207 234 199T211 191ZM184 -4Q155 -4 138 14T120 60Q120 88 137 105T184 123Q214 123 231 106T248 60Q248 32 231 14T184 -4Z" />
<glyph unicode="@" glyph-name="at" horiz-adv-x="948" d="M496 -164Q367 -164 271 -111T122 41T68 271Q68 370 100 451T190 592T330 682T510 714Q627 714 715 668T852 539T901 343Q901 257 877 193T809 94T708 59Q659 59 628 82T589 147Q562 103 523 81T440 59Q362
59 319 108T275 243Q275 316 303 373T380 464T490 497Q583 497 615 423L621 454Q628 491 665 491Q706 491 698 448L662 237Q657 208 657 186Q657 122 713 122Q766 122 800 183T834 343Q834 437 794 505T681 611T510 648Q399 648 317 602T188 470T142 271Q142 156
185 73T308 -54T496 -98Q566 -98 623 -80T723 -27Q744 -13 760 -21T777 -48T759 -83Q659 -164 496 -164ZM454 126Q495 126 527 151T578 221T597 323Q597 429 502 429Q461 429 428 405T377 340T358 244Q358 187 383 157T454 126Z" />
<glyph unicode="A" glyph-name="A" horiz-adv-x="736" d="M45 -7Q17 -7 4 11T7 57L382 677Q404 712 442 712Q484 712 496 671L670 60Q680 25 667 9T630 -7Q589 -7 577 39L542 172H184L97 24Q79 -7 45 -7ZM429 590L233 256H519L431 590H429Z" />
<glyph unicode="B" glyph-name="B" horiz-adv-x="682" d="M104 0Q76 0 63 15T53 60L148 654Q155 705 207 705H433Q546 705 598 659T651 539Q651 470 613 423T508 358Q559 341 587 302T616 209Q616 106 550 53T364 0H104ZM207 397H394Q467 397 508 431T550 528Q550
575 518 600T418 625H243L207 397ZM156 80H361Q438 80 477 114T516 214Q516 265 482 291T383 317H194L156 80Z" />
<glyph unicode="C" glyph-name="C" horiz-adv-x="676" d="M387 -9Q295 -9 225 25T114 130T74 309Q74 394 99 468T173 597T289 683T446 714Q506 714 560 697T654 648Q672 634 673 616T666 582T640 561T607 567Q568 597 528 609T442 622Q361 622 303 582T215 471T184
311Q184 190 239 137T397 83Q438 83 475 94T551 133Q572 145 588 140T612 120T617 87T595 56Q550 22 496 7T387 -9Z" />
<glyph unicode="D" glyph-name="D" horiz-adv-x="751" d="M104 0Q76 0 63 15T53 60L148 654Q156 705 207 705H371Q535 705 624 627T713 407Q713 322 689 249T615 119T490 32T312 0H104ZM161 87H314Q417 87 481 129T575 244T605 406Q605 509 547 563T371 618H245L161 87Z" />
<glyph unicode="E" glyph-name="E" horiz-adv-x="589" d="M105 0Q44 0 53 60L148 654Q155 705 207 705H569Q613 705 613 672Q613 647 600 634T564 621H242L207 400H500Q543 400 543 366Q543 342 530 329T494 316H194L156 84H470Q514 84 514 50Q514 26 501 13T465 0H105Z" />
<glyph unicode="F" glyph-name="F" horiz-adv-x="554" d="M100 -7Q73 -7 61 8T52 52L148 654Q155 705 207 705H556Q601 705 601 671Q601 648 588 635T551 621H247L210 396H486Q531 396 531 362Q531 339 518 326T481 312H197L155 44Q146 -7 100 -7Z" />
<glyph unicode="G" glyph-name="G" horiz-adv-x="731" d="M394 -9Q296 -9 224 26T113 130T73 299Q73 421 118 514T248 661T452 714Q515 714 569 698T663 652Q683 638 685 619T679 583T653 562T616 570Q580 598 538 610T446 623Q363 623 304 582T214 469T182 303Q182
189 240 135T407 81Q445 81 479 87T545 103L577 295H448Q404 295 404 329Q404 350 417 361T453 373H625Q649 373 660 360T668 323L629 71Q623 34 590 22Q550 7 498 -1T394 -9Z" />
<glyph unicode="H" glyph-name="H" horiz-adv-x="767" d="M96 -7Q70 -7 59 9T52 54L149 661Q157 712 207 712Q260 712 250 651L210 401H606L647 661Q655 712 705 712Q759 712 748 651L652 45Q644 -7 595 -7Q541 -7 551 54L592 314H197L154 45Q145 -7 96 -7Z" />
<glyph unicode="I" glyph-name="I" horiz-adv-x="268" d="M97 -7Q70 -7 59 9T52 54L149 661Q157 712 207 712Q260 712 250 651L154 45Q145 -7 97 -7Z" />
<glyph unicode="J" glyph-name="J" horiz-adv-x="338" d="M3 -7Q-20 -8 -33 3T-46 35Q-45 77 -4 79L27 81Q127 89 145 201L219 664Q226 712 275 712Q300 712 312 697T320 655L246 191Q232 100 183 52T34 -4L3 -7Z" />
<glyph unicode="K" glyph-name="K" horiz-adv-x="643" d="M96 -7Q72 -7 60 8T52 53L149 662Q157 712 207 712Q231 712 243 697T250 653L208 388H210L565 688Q579 701 590 706T617 712Q637 712 648 700T660 671T644 640L308 357L571 63Q584 48 583 32T570 5T537
-7Q518 -7 507 0T480 26L201 332H199L154 43Q146 -7 96 -7Z" />
<glyph unicode="L" glyph-name="L" horiz-adv-x="552" d="M101 0Q74 0 62 15T53 57L150 665Q157 712 205 712Q231 712 243 697T251 656L162 89H463Q511 89 511 53Q511 27 497 14T458 0H101Z" />
<glyph unicode="M" glyph-name="M" horiz-adv-x="862" d="M96 -4Q46 -4 54 49L152 668Q159 712 203 712Q223 712 234 704T253 674L422 216L745 682Q766 712 802 712Q825 712 835 699T843 660L744 41Q737 -4 694 -4Q671 -4 660 10T652 49L726 517L454 125Q445 112
436 106T412 100Q381 100 370 132L222 519L146 41Q139 -4 96 -4Z" />
<glyph unicode="N" glyph-name="N" horiz-adv-x="743" d="M93 -7Q70 -7 59 8T52 50L150 668Q157 712 198 712Q218 712 228 705T249 680L551 161L631 665Q638 712 687 712Q709 712 719 697T725 656L627 38Q620 -7 583 -7Q563 -7 551 1T528 27L226 544L146 40Q139
-7 93 -7Z" />
<glyph unicode="O" glyph-name="O" horiz-adv-x="775" d="M374 -9Q283 -9 216 26T111 130T73 296Q73 416 116 510T240 659T436 714Q528 714 595 679T700 575T737 410Q737 289 694 195T570 46T374 -9ZM376 81Q457 81 513 123T599 240T628 408Q628 518 576 571T433
624Q352 624 296 582T211 466T182 298Q182 188 233 135T376 81Z" />
<glyph unicode="P" glyph-name="P" horiz-adv-x="642" d="M97 -7Q72 -7 60 9T52 53L148 654Q156 705 207 705H419Q531 705 591 656T651 512Q651 401 582 338T381 274H190L154 44Q146 -7 97 -7ZM204 357H387Q467 357 508 395T550 505Q550 565 515 593T408 622H246L204
357Z" />
<glyph unicode="Q" glyph-name="Q" horiz-adv-x="775" d="M601 -130Q613 -155 605 -172T580 -196T543 -197T513 -167L467 -66Q454 -37 429 -23T361 -9H362Q274 -7 210 29T109 133T73 296Q73 416 116 510T240 659T436 714Q528 714 595 679T700 575T737 410Q737
315 710 235T631 98T505 13Q542 -3 565 -52L601 -130ZM376 81Q457 81 513 123T599 240T628 408Q628 518 576 571T433 624Q352 624 296 582T211 466T182 298Q182 188 233 135T376 81Z" />
<glyph unicode="R" glyph-name="R" horiz-adv-x="677" d="M95 -7Q71 -7 60 9T53 54L148 653Q156 705 208 705H418Q533 705 592 654T651 513Q651 419 598 366T458 298Q483 288 500 266T531 210L588 60Q600 28 590 11T547 -7Q526 -7 514 3T492 38L424 217Q408 258
384 274T315 291H193L155 44Q146 -7 95 -7ZM206 369H392Q467 369 508 404T550 505Q550 563 515 592T405 622H246L206 369Z" />
<glyph unicode="S" glyph-name="S" horiz-adv-x="622" d="M299 -9Q233 -9 170 6T55 55Q36 67 33 85T37 118T61 140T99 133Q146 103 199 91T308 79Q383 79 428 109T474 192Q474 229 447 254T354 295L248 321Q177 338 135 380T92 498Q92 565 129 613T227 688T363
714Q419 714 479 698T587 647Q604 634 607 617T603 584T578 565T537 575Q500 601 454 613T361 626Q289 626 242 593T195 506Q195 461 219 439T290 405L396 379Q488 358 532 313T577 204Q577 134 539 87T438 15T299 -9Z" />
<glyph unicode="T" glyph-name="T" horiz-adv-x="611" d="M268 -7Q243 -7 232 9T224 53L313 618H110Q63 618 63 654Q63 678 77 691T115 705H634Q681 705 681 670Q681 645 667 632T629 618H417L326 44Q317 -7 268 -7Z" />
<glyph unicode="U" glyph-name="U" horiz-adv-x="733" d="M338 -9Q249 -9 187 25T97 128T87 302L144 664Q151 712 201 712Q227 712 238 697T246 655L189 293Q155 81 344 81Q435 81 487 127T556 275L618 664Q625 712 675 712Q700 712 711 697T719 655L659 274Q637
134 560 63T338 -9Z" />
<glyph unicode="V" glyph-name="V" horiz-adv-x="699" d="M312 -7Q268 -7 255 40L86 641Q78 670 91 687T131 705Q151 705 163 695T183 659L326 132L642 668Q654 688 667 696T700 705Q731 705 742 685T737 638L374 31Q362 11 348 2T312 -7Z" />
<glyph unicode="W" glyph-name="W" horiz-adv-x="1107" d="M278 -7Q237 -7 227 42L110 650Q105 678 118 695T158 712Q199 712 207 664L301 150L566 673Q586 712 624 712Q660 712 670 662L765 144L1032 674Q1041 694 1053 703T1086 712Q1116 712 1126 693T1123
645L810 32Q790 -7 749 -7Q707 -7 697 42L602 547L339 32Q329 12 315 3T278 -7Z" />
<glyph unicode="X" glyph-name="X" horiz-adv-x="660" d="M54 -7Q34 -7 22 4T10 33T25 68L288 364L127 639Q110 668 122 690T166 712Q185 712 195 704T219 674L358 430L573 681Q588 698 601 705T631 712Q651 712 663 701T676 672T662 638L411 355L580 67Q597 39
584 16T540 -7Q521 -7 511 1T487 31L339 287L112 24Q97 7 84 0T54 -7Z" />
<glyph unicode="Y" glyph-name="Y" horiz-adv-x="606" d="M263 -7Q238 -7 228 9T221 53L265 328L92 638Q75 667 87 689T130 712Q149 712 160 704T184 674L325 420L553 681Q568 698 580 705T611 712Q640 712 651 688T639 638L368 330L322 44Q314 -7 263 -7Z" />
<glyph unicode="Z" glyph-name="Z" horiz-adv-x="596" d="M59 0Q36 0 25 14T16 52T41 100L490 618H152Q106 618 106 654Q106 679 120 692T158 705H579Q620 705 627 674T602 607L152 87H505Q551 87 551 52Q551 27 537 14T499 0H59Z" />
<glyph unicode="[" glyph-name="bracketleft" horiz-adv-x="333" d="M102 -180Q77 -180 62 -163T51 -119L175 665Q177 682 190 693T221 705H350Q398 705 398 669Q398 647 386 637T351 627H269L154 -102H234Q255 -102 262 -111T270 -134Q270 -155 258 -167T224 -180H102Z" />
<glyph unicode="\" glyph-name="backslash" horiz-adv-x="297" d="M185 -29L64 706Q61 725 71 737T97 752T125 747T143 718L264 -18Q268 -38 258 -50T232 -64T202 -59T185 -29Z" />
<glyph unicode="]" glyph-name="bracketright" horiz-adv-x="333" d="M-11 -180Q-59 -180 -59 -144Q-59 -122 -47 -112T-12 -102H70L185 627H105Q84 627 77 636T69 659Q69 680 81 692T115 705H237Q262 705 277 688T288 644L164 -140Q161 -157 149 -168T118 -180H-11Z" />
<glyph unicode="^" glyph-name="asciicircum" horiz-adv-x="600" d="M84 133Q60 133 53 148T58 185L307 602Q318 620 330 627T362 635Q398 635 409 594L525 184Q531 160 521 147T491 133Q471 133 464 143T452 168L350 536L128 161Q120 148 111 141T84 133Z" />
<glyph unicode="_" glyph-name="underscore" horiz-adv-x="500" d="M5 -63Q-31 -63 -31 -36Q-31 -17 -20 -9T8 0H408Q444 0 444 -27Q444 -45 433 -54T405 -63H5Z" />
<glyph unicode="`" glyph-name="grave" horiz-adv-x="500" d="M257 561L157 704Q143 724 148 740T168 763T202 766T232 738L312 591Q322 572 313 558T287 543T257 561Z" />
<glyph unicode="a" glyph-name="a" horiz-adv-x="537" d="M196 -9Q153 -9 116 10T57 63T35 139Q35 216 101 251T310 286H379L383 310Q392 363 368 391T285 419Q250 419 218 412T152 388Q133 378 118 383T97 402T96 432T126 459Q166 478 210 487T297 497Q406 497
448 438T476 284L438 43Q430 -7 383 -7Q361 -7 350 7T343 49L347 74Q322 31 282 11T196 -9ZM225 63Q276 63 315 96T364 190L369 224H319Q215 224 175 207T135 145Q135 105 161 84T225 63Z" />
<glyph unicode="b" glyph-name="b" horiz-adv-x="591" d="M306 -9Q251 -9 208 16T146 92L138 43Q131 -7 83 -7Q59 -7 48 8T40 52L137 662Q146 712 195 712Q219 712 230 697T237 653L199 413Q226 453 268 475T364 497Q448 497 499 441T550 287Q550 206 521 139T438
31T306 -9ZM290 69Q341 69 376 98T429 175T448 283Q448 349 417 383T328 418Q277 418 242 390T188 313T169 204Q169 138 201 104T290 69Z" />
<glyph unicode="c" glyph-name="c" horiz-adv-x="467" d="M264 -9Q151 -9 96 51T41 210Q41 264 57 315T106 407T189 472T309 497Q346 497 381 488T443 462Q464 450 469 434T468 403T447 383T416 387Q370 417 314 417Q253 417 216 387T162 309T145 211Q145 147
175 109T277 71Q298 71 322 77T372 99Q387 107 400 102T420 84T424 55T402 29Q375 11 337 1T264 -9Z" />
<glyph unicode="d" glyph-name="d" horiz-adv-x="591" d="M226 -9Q142 -9 91 47T40 200Q40 282 69 349T153 457T285 497Q339 497 381 472T444 397L486 664Q493 712 544 712Q594 712 585 655L488 44Q480 -7 430 -7Q406 -7 396 9T391 53L396 81Q368 39 325 15T226
-9ZM263 69Q313 69 348 98T402 175T421 283Q421 349 389 383T301 418Q250 418 215 390T161 313T142 204Q142 138 174 104T263 69Z" />
<glyph unicode="e" glyph-name="e" horiz-adv-x="537" d="M275 -9Q167 -9 104 49T41 209Q41 289 74 354T166 458T305 497Q384 497 429 462T490 370T500 252Q498 233 490 227T467 221H137Q132 151 170 110T282 69Q315 69 348 77T409 103Q429 115 443 111T463 94T466
66T444 38Q409 14 363 3T275 -9ZM304 426Q257 426 225 406T173 353T146 283H420Q425 343 398 384T304 426Z" />
<glyph unicode="f" glyph-name="f" horiz-adv-x="347" d="M111 -7Q88 -7 77 8T70 52L127 410H76Q36 410 36 441Q36 463 48 475T83 488H139L144 519Q157 602 209 650T358 706L389 708Q410 709 420 698T430 672T422 645T397 631L368 629Q312 626 283 599T245 519L240
488H333Q373 488 373 457Q373 435 360 423T325 410H228L170 43Q162 -7 111 -7Z" />
<glyph unicode="g" glyph-name="g" horiz-adv-x="594" d="M252 -189Q193 -189 141 -175T49 -135Q32 -125 29 -109T33 -80T55 -62T89 -67Q122 -87 159 -99T238 -111Q301 -111 339 -81T389 14L403 98Q376 57 333 35T236 12Q148 12 95 65T41 212Q41 287 70 352T155
457T288 497Q343 497 386 473T449 399L456 446Q463 495 513 495Q536 495 547 480T553 436L487 19Q454 -189 252 -189ZM265 91Q317 91 353 119T407 193T426 293Q426 352 394 385T303 418Q252 418 216 390T162 316T143 217Q143 157 175 124T265 91Z" />
<glyph unicode="h" glyph-name="h" horiz-adv-x="576" d="M82 -7Q58 -7 47 9T41 53L137 662Q144 712 195 712Q219 712 230 697T237 654L198 411Q225 452 268 474T368 497Q448 497 489 448T515 294L476 43Q469 -7 418 -7Q394 -7 383 8T376 52L414 292Q434 416 332
416Q265 416 226 375T175 263L140 43Q133 -7 82 -7Z" />
<glyph unicode="i" glyph-name="i" horiz-adv-x="243" d="M178 597Q120 597 124 650Q130 711 196 711Q225 711 239 697T251 658Q244 597 178 597ZM81 -7Q58 -7 47 8T40 52L103 445Q111 495 161 495Q184 495 195 480T202 436L139 43Q131 -7 81 -7Z" />
<glyph unicode="j" glyph-name="j" horiz-adv-x="246" d="M180 597Q121 597 126 650Q131 711 198 711Q226 711 240 697T252 658Q245 597 180 597ZM-74 -191Q-95 -192 -105 -181T-116 -154T-108 -127T-79 -114Q-33 -113 -4 -89T34 -11L106 445Q115 495 164 495Q187
495 198 480T206 436L136 -3Q121 -98 72 -142T-74 -191Z" />
<glyph unicode="k" glyph-name="k" horiz-adv-x="516" d="M82 -7Q58 -7 47 8T41 51L138 664Q145 712 196 712Q219 712 230 697T237 653L177 275H179L398 466Q415 481 427 488T457 495Q477 495 486 484T494 455T476 424L278 248L438 65Q452 48 451 32T439 4T408
-7Q387 -7 375 2T346 31L171 227H169L140 41Q133 -7 82 -7Z" />
<glyph unicode="l" glyph-name="l" horiz-adv-x="306" d="M191 -9Q114 -9 80 35T58 166L138 662Q145 712 196 712Q219 712 230 697T237 653L159 167Q152 118 167 96T220 74Q232 74 239 76T253 78Q261 78 266 72T271 49Q271 25 261 13T235 -4Q227 -7 214 -8T191 -9Z" />
<glyph unicode="m" glyph-name="m" horiz-adv-x="866" d="M83 -7Q60 -7 49 8T42 50L105 446Q112 495 161 495Q185 495 195 480T202 438L197 408Q225 452 266 474T355 497Q462 497 490 397Q516 445 560 471T663 497Q739 497 779 448T802 293L762 41Q755 -7 706
-7Q682 -7 671 8T663 50L701 296Q720 416 627 416Q571 416 535 376T487 263L453 41Q445 -7 395 -7Q371 -7 360 8T352 50L392 296Q410 416 318 416Q262 416 225 376T177 263L142 41Q135 -7 83 -7Z" />
<glyph unicode="n" glyph-name="n" horiz-adv-x="576" d="M82 -7Q59 -7 48 9T41 53L103 445Q110 495 161 495Q183 495 194 481T200 439L195 406Q222 450 266 473T368 497Q448 497 489 448T515 294L476 43Q468 -7 418 -7Q394 -7 383 8T376 52L414 292Q434 416 332
416Q265 416 226 375T175 263L140 43Q133 -7 82 -7Z" />
<glyph unicode="o" glyph-name="o" horiz-adv-x="565" d="M261 -9Q158 -9 100 49T41 208Q41 293 75 358T168 460T304 497Q407 497 465 439T524 280Q524 195 490 130T397 28T261 -9ZM263 69Q314 69 349 98T403 175T422 283Q422 349 390 383T302 418Q251 418 216
390T162 313T143 204Q143 138 175 104T263 69Z" />
<glyph unicode="p" glyph-name="p" horiz-adv-x="591" d="M54 -187Q30 -187 19 -172T12 -129L103 443Q111 495 161 495Q184 495 194 480T200 436L196 409Q224 451 267 474T364 497Q448 497 499 441T550 287Q550 206 521 139T438 31T306 -9Q252 -9 210 15T147 88L111
-139Q103 -187 54 -187ZM290 69Q341 69 376 98T429 175T448 283Q448 349 417 383T328 418Q277 418 242 390T188 313T169 204Q169 138 201 104T290 69Z" />
<glyph unicode="q" glyph-name="q" horiz-adv-x="591" d="M401 -187Q351 -187 360 -129L392 76Q365 36 323 14T227 -9Q142 -9 91 47T40 200Q40 282 69 349T154 457T287 497Q341 497 383 471T445 393L454 446Q462 495 509 495Q532 495 543 480T551 436L460 -136Q452
-187 401 -187ZM263 69Q313 69 348 98T402 175T421 283Q421 349 389 383T301 418Q250 418 215 390T161 313T142 204Q142 138 174 104T263 69Z" />
<glyph unicode="r" glyph-name="r" horiz-adv-x="373" d="M82 -7Q58 -7 47 8T40 50L103 446Q110 495 160 495Q183 495 194 480T201 438L196 406Q220 449 263 472T358 498Q383 499 391 491T400 463Q400 437 388 425T349 410L325 407Q251 400 219 363T176 262L141
41Q134 -7 82 -7Z" />
<glyph unicode="s" glyph-name="s" horiz-adv-x="484" d="M224 -9Q177 -9 133 1T57 29Q38 40 33 55T34 85T54 104T87 99Q119 82 154 73T225 64Q276 64 304 83T332 138Q332 184 271 197L178 218Q126 230 97 262T67 341Q67 385 92 420T163 476T276 497Q314 497 355
486T425 456Q443 444 447 429T445 401T424 384T390 391Q338 423 271 423Q219 423 190 402T160 346Q160 325 173 310T215 288L308 267Q364 254 394 224T425 145Q425 72 370 32T224 -9Z" />
<glyph unicode="t" glyph-name="t" horiz-adv-x="365" d="M247 -9Q156 -9 115 41T86 174L124 410H70Q27 410 27 443Q27 465 41 476T79 488H136L153 595Q160 642 208 642Q261 642 252 586L237 488H347Q390 488 390 455Q390 435 378 423T342 410H225L188 182Q179
124 201 100T266 75Q285 75 296 78T317 82Q328 82 334 76T340 53Q340 26 332 15T307 -1Q296 -5 279 -7T247 -9Z" />
<glyph unicode="u" glyph-name="u" horiz-adv-x="569" d="M206 -9Q127 -9 86 40T61 195L101 448Q108 495 157 495Q181 495 193 481T201 439L162 195Q144 72 242 72Q305 72 344 113T395 225L430 448Q437 495 485 495Q510 495 521 480T529 439L466 41Q459 -7 411
-7Q361 -7 369 46L374 79Q317 -9 206 -9Z" />
<glyph unicode="v" glyph-name="v" horiz-adv-x="520" d="M224 -7Q200 -7 186 5T164 42L60 424Q51 455 64 475T106 495Q126 495 138 485T156 449L237 117L433 460Q444 479 456 487T488 495Q517 495 527 476T521 430L286 32Q262 -7 224 -7Z" />
<glyph unicode="w" glyph-name="w" horiz-adv-x="846" d="M210 -7Q189 -7 175 4T154 41L70 423Q63 455 75 475T116 495Q136 495 146 485T161 450L226 120L406 463Q423 495 457 495Q474 495 486 486T503 455L571 114L749 458Q759 479 771 487T804 495Q834 495 842
476T838 432L623 32Q602 -7 561 -7Q515 -7 504 41L439 349L273 33Q252 -7 210 -7Z" />
<glyph unicode="x" glyph-name="x" horiz-adv-x="534" d="M54 -7Q23 -7 14 15T26 60L211 253L99 424Q81 453 94 474T132 495Q166 495 186 463L279 316L418 468Q430 482 441 488T471 495Q503 495 512 473T500 429L329 247L449 64Q468 35 455 14T415 -7Q381 -7 362
25L262 181L108 20Q95 6 84 0T54 -7Z" />
<glyph unicode="y" glyph-name="y" horiz-adv-x="520" d="M121 -187Q92 -187 83 -168T89 -123L171 13L59 425Q51 455 64 475T105 495Q127 495 137 485T154 449L236 117L432 458Q442 478 454 486T487 495Q516 495 526 475T521 429L176 -151Q165 -170 153 -178T121 -187Z" />
<glyph unicode="z" glyph-name="z" horiz-adv-x="468" d="M61 0Q28 0 19 25T34 76L338 411H118Q77 411 77 443Q77 464 89 476T123 488H420Q455 488 463 463T444 408L142 77H374Q415 77 415 45Q415 25 403 13T369 0H61Z" />
<glyph unicode="{" glyph-name="braceleft" horiz-adv-x="370" d="M211 -180Q144 -180 116 -150T95 -69L129 143Q136 189 122 204T72 222Q43 225 43 255Q43 275 53 288T79 303Q120 304 140 321T167 382L200 594Q218 705 321 705H390Q433 705 433 667Q433 649 421
638T390 627H348Q307 627 299 583L266 371Q259 323 231 296T174 263Q201 256 219 229T231 154L198 -59Q195 -82 203 -92T233 -102H269Q284 -102 294 -112T304 -137Q304 -180 262 -180H211Z" />
<glyph unicode="|" glyph-name="bar" horiz-adv-x="275" d="M70 -187Q46 -187 35 -172T28 -128L154 662Q161 712 212 712Q235 712 246 697T253 653L128 -137Q120 -187 70 -187Z" />
<glyph unicode="}" glyph-name="braceright" horiz-adv-x="370" d="M-14 -180Q-57 -180 -57 -142Q-57 -123 -45 -113T-14 -102H28Q69 -102 77 -58L110 154Q117 202 145 229T202 262Q175 269 156 296T145 371L177 584Q181 607 173 617T143 627H107Q92 627 82 637T72
662Q72 705 113 705H165Q232 705 260 675T281 594L247 382Q240 336 254 321T304 303Q333 300 333 270Q333 250 323 237T296 222Q256 221 236 204T209 143L175 -69Q158 -180 55 -180H-14Z" />
<glyph unicode="~" glyph-name="asciitilde" horiz-adv-x="600" d="M418 213Q385 213 354 226T294 255Q268 269 245 279T201 290Q175 290 157 278T126 247Q113 230 95 232T68 250T71 285Q95 323 125 342T195 361Q229 361 261 348T322 319Q348 305 369 295T412
284Q439 284 457 297T488 328Q501 345 519 343T546 325T542 290Q494 213 418 213Z" />
<glyph unicode="&#xa0;" glyph-name="uni00A0" horiz-adv-x="264" />
<glyph unicode="&#xa1;" glyph-name="exclamdown" horiz-adv-x="237" d="M150 365Q120 365 103 383T85 428Q85 457 102 474T150 492Q179 492 196 475T213 428Q213 401 196 383T150 365ZM56 -187Q26 -187 11 -169T3 -118L89 268Q97 299 125 299Q157 299 154 260L118
-126Q113 -187 56 -187Z" />
<glyph unicode="&#xa2;" glyph-name="cent" horiz-adv-x="600" d="M257 -122Q238 -122 228 -112T220 -78L234 5Q159 24 123 78T87 210Q87 274 110 334T182 436T309 489L323 579Q329 615 368 615Q385 615 397 605T405 570L392 492Q460 485 504 453Q521 442 524
427T520 399T498 382T465 387Q420 413 364 413Q301 413 263 383T207 306T190 211Q190 151 221 114T327 76Q349 76 374 82T423 103Q440 113 453 107T472 87T474 57T452 32Q420 13 383 4T315 -5L302 -86Q296 -122 257 -122Z" />
<glyph unicode="&#xa3;" glyph-name="sterling" horiz-adv-x="600" d="M57 0Q32 0 20 11T7 39Q7 62 22 74T62 86H112L149 317H94Q73 317 64 326T55 349Q55 366 68 378T100 390H161L179 504Q196 609 255 661T424 714Q474 714 522 699T604 655Q621 640 622 623T615
593T590 577T557 585Q526 610 494 619T427 629Q301 629 282 508L264 390H399Q420 390 429 381T439 358Q439 339 426 328T394 317H252L215 86H483Q509 86 520 75T532 48Q532 27 517 14T478 0H57Z" />
<glyph unicode="&#xa4;" glyph-name="currency" horiz-adv-x="600" d="M51 -11Q40 -1 40 12T51 36L108 95Q85 126 72 164T59 245Q59 287 71 325T108 396L51 455Q28 478 51 501Q60 512 73 512T98 500L155 442Q185 466 222 479T301 493Q341 493 378 480T445 444L500
500Q511 511 525 511T549 502Q560 491 560 477T549 452L493 395Q541 329 541 245Q541 203 529 165T492 94L549 36Q559 26 559 13T549 -11Q540 -21 526 -21T502 -10L446 48Q416 24 379 11T301 -3Q259 -3 222 10T154 47L97 -10Q87 -21 74 -21T51 -11ZM300 81Q343
81 377 103T433 162T454 245Q454 291 433 328T378 387T300 409Q258 409 223 387T167 328T146 245Q146 200 166 163T222 103T300 81Z" />
<glyph unicode="&#xa5;" glyph-name="yen" horiz-adv-x="600" d="M260 -7Q235 -7 224 8T217 52L236 168H99Q77 168 66 177T55 202Q55 219 67 230T97 241H248L261 322H123Q102 322 91 331T80 356Q80 374 92 384T121 395H234L98 641Q82 669 95 690T139 712Q157 712
166 704T186 676L323 421L545 683Q558 698 569 705T596 712Q615 712 627 701T641 674T629 642L416 395H513Q556 395 556 360Q556 344 544 333T515 322H364L351 241H488Q531 241 531 206Q531 189 519 179T490 168H339L320 43Q311 -7 260 -7Z" />
<glyph unicode="&#xa6;" glyph-name="brokenbar" horiz-adv-x="275" d="M157 365Q133 365 122 380T116 424L154 662Q162 712 212 712Q236 712 247 697T254 653L216 415Q207 365 157 365ZM70 -187Q46 -187 35 -172T29 -128L67 110Q75 161 125 161Q149 161 160 146T167
102L129 -137Q121 -187 70 -187Z" />
<glyph unicode="&#xa7;" glyph-name="section" horiz-adv-x="556" d="M212 -189Q156 -189 109 -177T25 -142Q6 -131 3 -116T6 -87T28 -69T61 -76Q123 -116 209 -116Q269 -116 304 -85T340 -6Q340 29 324 50T271 94L164 155Q52 221 52 312Q52 404 136 461Q124 489
124 523Q124 582 155 625T237 691T351 714Q398 714 441 704T524 667Q543 655 546 640T542 613T519 596T485 603Q458 621 423 631T353 641Q293 641 258 610T222 530Q222 495 238 473T292 429L396 369Q510 303 510 212Q510 168 489 130T426 64Q438 37 438 3Q438 -57
407 -100T325 -166T212 -189ZM143 329Q143 298 163 273T223 224L318 170Q363 143 384 116Q402 135 411 156T420 196Q420 227 399 252T337 301L245 353Q200 379 177 409Q159 390 151 369T143 329Z" />
<glyph unicode="&#xa8;" glyph-name="dieresis" horiz-adv-x="500" d="M398 600Q352 600 352 642Q352 671 368 688T414 706Q460 706 460 665Q460 635 444 618T398 600ZM217 600Q170 600 170 642Q170 671 186 688T232 706Q279 706 279 665Q279 635 263 618T217 600Z" />
<glyph unicode="&#xa9;" glyph-name="copyright" horiz-adv-x="815" d="M425 -9Q348 -9 282 18T167 95T90 210T63 353Q63 430 90 495T166 610T282 687T425 714Q502 714 567 687T682 611T759 496T786 353Q786 276 759 210T683 95T568 19T425 -9ZM425 39Q492 39
548 62T647 129T712 229T736 353Q736 442 696 513T585 625T425 666Q358 666 302 643T203 577T137 477T113 353Q113 286 136 229T202 129T301 63T425 39ZM440 137Q342 137 285 196T228 355Q228 454 285 511T440 568Q472 568 504 559T565 531Q579 523 581 510T578
485T560 469T531 473Q509 486 488 492T446 498Q385 498 351 461T316 354Q316 286 350 247T446 208Q468 208 489 213T534 234Q549 243 561 239T579 223T582 198T566 175Q540 157 507 147T440 137Z" />
<glyph unicode="&#xaa;" glyph-name="ordfeminine" horiz-adv-x="332" d="M167 409Q124 409 95 436T66 500Q66 588 239 588H286L288 601Q293 632 276 647T224 662Q184 662 146 645Q128 638 118 647T109 671T130 693Q174 714 230 714Q297 714 329 678T352 584L329
440Q324 410 294 410Q277 410 270 419T265 443L270 470H267Q231 409 167 409ZM186 458Q217 458 244 479T277 532L279 548H244Q185 548 160 538T134 504Q134 483 148 471T186 458Z" />
<glyph unicode="&#xab;" glyph-name="guillemotleft" horiz-adv-x="465" d="M171 89Q152 82 137 88T113 113L62 232Q55 247 57 264T72 299L175 432Q185 445 199 448T227 444Q243 436 245 419T231 379L149 262L189 141Q202 102 171 89ZM364 89Q345 82 330 88T306
113L255 232Q248 247 250 264T265 299L368 432Q378 445 392 448T420 444Q436 436 438 419T424 379L342 262L382 141Q395 102 364 89Z" />
<glyph unicode="&#xac;" glyph-name="logicalnot" horiz-adv-x="600" d="M490 137Q449 137 457 183L485 352H111Q72 352 72 382Q72 425 115 425H512Q539 425 553 409T563 364L533 174Q527 137 490 137Z" />
<glyph unicode="&#xad;" glyph-name="uni00AD" horiz-adv-x="429" d="M111 226Q67 226 67 259Q67 279 78 293T112 307H327Q371 307 371 274Q371 254 359 240T325 226H111Z" />
<glyph unicode="&#xae;" glyph-name="registered" horiz-adv-x="815" d="M425 -9Q348 -9 282 18T167 95T90 210T63 353Q63 430 90 495T166 610T282 687T425 714Q502 714 567 687T682 611T759 496T786 353Q786 276 759 210T683 95T568 19T425 -9ZM425 39Q492 39
548 62T647 129T712 229T736 353Q736 442 696 513T585 625T425 666Q358 666 302 643T203 577T137 477T113 353Q113 286 136 229T202 129T301 63T425 39ZM316 136Q276 136 276 178V517Q276 564 324 564H453Q522 564 559 531T596 441Q596 395 573 367T507 328Q523
322 535 308T557 266L586 186Q594 161 582 149T548 136Q533 136 524 144T510 168L475 269Q467 293 450 301T409 309H356V178Q356 136 316 136ZM355 371H442Q519 371 519 437Q519 503 442 503H355V371Z" />
<glyph unicode="&#xaf;" glyph-name="overscore" horiz-adv-x="500" d="M189 621Q155 621 155 648Q155 664 165 674T193 685H441Q475 685 475 658Q475 641 465 631T437 621H189Z" />
<glyph unicode="&#xb0;" glyph-name="degree" horiz-adv-x="375" d="M238 409Q194 409 160 429T105 483T85 559Q85 602 105 636T159 690T238 710Q281 710 315 691T369 637T390 559Q390 516 370 482T316 429T238 409ZM238 471Q275 471 299 496T323 559Q323 598
299 623T238 648Q200 648 177 623T153 559Q153 521 176 496T238 471Z" />
<glyph unicode="&#xb1;" glyph-name="plusminus" horiz-adv-x="600" d="M284 125Q244 125 250 170L270 294H102Q63 294 63 325Q63 368 107 368H283L302 499Q308 538 345 538Q364 538 372 526T378 492L359 368H526Q566 368 566 338Q566 294 522 294H346L326 164Q320
125 284 125ZM55 0Q16 0 16 30Q16 74 60 74H479Q519 74 519 44Q519 0 475 0H55Z" />
<glyph unicode="&#xb2;" glyph-name="uni00B2" horiz-adv-x="380" d="M98 282Q59 282 59 315Q59 328 64 337T81 356L225 484Q255 511 273 537T292 591Q292 613 277 626T232 639Q210 639 190 633T149 616Q130 606 117 617T104 646T125 676Q153 693 186 701T251
709Q313 709 347 678T381 601Q380 555 354 520T277 441L177 352H320Q357 352 357 323Q357 304 346 293T315 282H98Z" />
<glyph unicode="&#xb3;" glyph-name="uni00B3" horiz-adv-x="380" d="M202 278Q167 278 131 286T67 313Q53 322 51 335T54 360T74 376T103 370Q123 357 148 352T201 347Q234 347 256 363T279 411Q281 460 212 460H169Q152 460 142 467T131 490Q131 507 142 519T174
531H218Q253 531 277 546T301 592Q301 615 284 627T236 639Q207 639 185 632T146 615Q126 604 113 615T100 644T122 674Q146 688 178 698T249 709Q311 709 347 680T383 607Q383 568 358 539T293 498Q326 487 343 463T361 406Q361 368 340 340T282 295T202 278Z"
/>
<glyph unicode="&#xb4;" glyph-name="acute" horiz-adv-x="500" d="M337 557Q324 541 308 543T285 559T289 591L392 747Q405 767 422 769T452 763T469 737T459 704L337 557Z" />
<glyph unicode="&#xb5;" glyph-name="uni00B5" horiz-adv-x="600" d="M67 -187Q44 -187 33 -172T26 -130L118 447Q125 495 175 495Q199 495 210 480T218 437L179 195Q159 72 259 72Q323 72 362 114T412 225L446 446Q454 495 504 495Q528 495 539 480T546 437L483
41Q476 -7 428 -7Q406 -7 394 5T384 37L392 86Q371 41 335 16T251 -9Q176 -9 147 43L124 -137Q118 -187 67 -187Z" />
<glyph unicode="&#xb6;" glyph-name="paragraph" horiz-adv-x="604" d="M215 -187Q178 -187 184 -143L254 297Q199 297 160 320T100 384T78 474Q78 543 107 595T189 676T311 705H541Q566 705 578 691T587 651L460 -149Q453 -187 415 -187Q377 -187 384 -143L506
631H384L260 -149Q254 -187 215 -187Z" />
<glyph unicode="&#xb7;" glyph-name="middot" horiz-adv-x="237" d="M124 204Q94 204 77 221T59 267Q59 295 76 312T124 330Q153 330 170 313T187 267Q187 239 170 222T124 204Z" />
<glyph unicode="&#xb8;" glyph-name="cedilla" horiz-adv-x="500" d="M191 -194Q153 -194 121 -184Q102 -178 100 -163T108 -137T136 -132Q160 -140 189 -140Q217 -140 233 -131T249 -105Q249 -81 215 -81Q199 -81 182 -85Q165 -89 159 -83Q152 -76 156 -60L182
20H240L220 -40Q228 -40 234 -40Q270 -40 291 -56T313 -104Q313 -145 278 -169T191 -194Z" />
<glyph unicode="&#xb9;" glyph-name="uni00B9" horiz-adv-x="380" d="M122 282Q85 282 85 313Q85 330 96 341T127 352H192L232 604L185 579Q166 569 152 573T132 591T129 618T153 643L247 694Q256 699 267 703T293 708Q311 708 317 701T324 683T324 666L274 352H313Q351
352 351 322Q351 305 340 294T309 282H122Z" />
<glyph unicode="&#xba;" glyph-name="ordmasculine" horiz-adv-x="345" d="M217 411Q154 411 113 449T72 551Q72 602 93 638T149 694T229 714Q292 714 332 676T373 574Q373 524 352 487T296 431T217 411ZM218 464Q256 464 280 492T304 575Q304 617 283 639T228
661Q190 661 166 633T142 550Q142 509 163 487T218 464Z" />
<glyph unicode="&#xbb;" glyph-name="guillemotright" horiz-adv-x="465" d="M52 88Q36 96 34 113T49 154L130 271L90 391Q78 431 108 443Q127 450 142 444T166 419L217 301Q224 285 222 268T207 233L104 100Q94 87 80 84T52 88ZM245 88Q229 96 227 113T242 154L323
271L283 391Q271 431 301 443Q320 450 335 444T359 419L410 301Q417 285 415 268T400 233L297 100Q287 87 273 84T245 88Z" />
<glyph unicode="&#xbc;" glyph-name="onequarter" horiz-adv-x="902" d="M122 282Q85 282 85 313Q85 330 96 341T127 352H192L232 604L185 579Q166 569 152 573T132 591T129 618T153 643L247 694Q256 699 267 703T293 708Q311 708 317 701T324 683T324 666L274
352H313Q351 352 351 322Q351 305 340 294T309 282H122ZM280 1Q268 -15 253 -17T226 -12T211 10T221 41L709 705Q721 721 735 723T762 717T776 695T767 664L280 1ZM744 -4Q725 -4 716 5T709 34L716 78H573Q555 78 542 84T528 109Q528 120 533 130T545 148L756 397Q765
409 777 418T811 427Q853 427 846 385L809 148H833Q845 148 854 140T864 117Q864 103 854 91T826 78H798L791 33Q785 -4 744 -4ZM727 148L752 301L623 148H727Z" />
<glyph unicode="&#xbd;" glyph-name="onehalf" horiz-adv-x="948" d="M122 282Q85 282 85 313Q85 330 96 341T127 352H192L232 604L185 579Q166 569 152 573T132 591T129 618T153 643L247 694Q256 699 267 703T293 708Q311 708 317 701T324 683T324 666L274 352H313Q351
352 351 322Q351 305 340 294T309 282H122ZM280 1Q268 -15 253 -17T226 -12T211 10T221 41L709 705Q721 721 735 723T762 717T776 695T767 664L280 1ZM621 0Q582 0 582 33Q582 46 587 55T604 74L748 202Q778 229 796 255T815 309Q815 331 800 344T755 357Q733 357
713 351T672 334Q653 324 640 335T627 364T648 394Q676 411 709 419T774 427Q836 427 870 396T904 319Q903 273 877 238T800 159L700 70H843Q880 70 880 41Q880 22 869 11T838 0H621Z" />
<glyph unicode="&#xbe;" glyph-name="threequarters" horiz-adv-x="902" d="M202 278Q167 278 131 286T67 313Q53 322 51 335T54 360T74 376T103 370Q123 357 148 352T201 347Q234 347 256 363T279 411Q281 460 212 460H169Q152 460 142 467T131 490Q131 507 142
519T174 531H218Q253 531 277 546T301 592Q301 615 284 627T236 639Q207 639 185 632T146 615Q126 604 113 615T100 644T122 674Q146 688 178 698T249 709Q311 709 347 680T383 607Q383 568 358 539T293 498Q326 487 343 463T361 406Q361 368 340 340T282 295T202
278ZM280 1Q268 -15 253 -17T226 -12T211 10T221 41L709 705Q721 721 735 723T762 717T776 695T767 664L280 1ZM744 -4Q725 -4 716 5T709 34L716 78H573Q555 78 542 84T528 109Q528 120 533 130T545 148L756 397Q765 409 777 418T811 427Q853 427 846 385L809 148H833Q845
148 854 140T864 117Q864 103 854 91T826 78H798L791 33Q785 -4 744 -4ZM727 148L752 301L623 148H727Z" />
<glyph unicode="&#xbf;" glyph-name="questiondown" horiz-adv-x="450" d="M265 365Q236 365 219 383T201 428Q201 457 218 474T265 492Q295 492 312 475T329 428Q329 401 312 383T265 365ZM154 -189Q99 -189 59 -170T-3 -118T-25 -45Q-25 10 7 52T92 131Q146
168 171 201T205 274Q209 286 215 293T238 300Q255 300 263 290T269 260Q263 228 253 201T221 148T160 92Q123 63 101 36T79 -27Q79 -59 102 -80T169 -101Q213 -101 249 -91T322 -59Q345 -46 360 -51T383 -71T385 -103T361 -133Q318 -162 264 -175T154 -189Z" />
<glyph unicode="&#xc0;" glyph-name="Agrave" horiz-adv-x="736" d="M45 -7Q17 -7 4 11T7 57L382 677Q404 712 442 712Q484 712 496 671L670 60Q680 25 667 9T630 -7Q589 -7 577 39L542 172H184L97 24Q79 -7 45 -7ZM429 590L233 256H519L431 590H429ZM409 772L322
883Q307 900 311 916T330 942T361 949T391 925L463 809Q473 791 465 777T440 759T409 772Z" />
<glyph unicode="&#xc1;" glyph-name="Aacute" horiz-adv-x="736" d="M45 -7Q17 -7 4 11T7 57L382 677Q404 712 442 712Q484 712 496 671L670 60Q680 25 667 9T630 -7Q589 -7 577 39L542 172H184L97 24Q79 -7 45 -7ZM429 590L233 256H519L431 590H429ZM495 770Q480
755 464 758T441 776T446 806L539 929Q553 947 570 949T600 941T617 916T604 885L495 770Z" />
<glyph unicode="&#xc2;" glyph-name="Acircumflex" horiz-adv-x="736" d="M45 -7Q17 -7 4 11T7 57L382 677Q404 712 442 712Q484 712 496 671L670 60Q680 25 667 9T630 -7Q589 -7 577 39L542 172H184L97 24Q79 -7 45 -7ZM429 590L233 256H519L431 590H429ZM353
769Q339 754 323 756T300 771T305 800L397 914Q426 949 465 949Q485 949 499 939T525 909L591 801Q603 782 594 769T566 756T534 773L458 877L353 769Z" />
<glyph unicode="&#xc3;" glyph-name="Atilde" horiz-adv-x="736" d="M45 -7Q17 -7 4 11T7 57L382 677Q404 712 442 712Q484 712 496 671L670 60Q680 25 667 9T630 -7Q589 -7 577 39L542 172H184L97 24Q79 -7 45 -7ZM429 590L233 256H519L431 590H429ZM262 776Q250
777 244 786T242 811Q258 867 291 894T369 921Q396 921 420 911T465 886T507 861T547 850Q571 850 589 863T616 904Q625 928 649 927Q662 926 668 917T670 892Q654 835 621 808T542 781Q514 781 490 792T445 817T404 842T364 853Q314 853 295 798Q286 774 262 776Z"
/>
<glyph unicode="&#xc4;" glyph-name="Adieresis" horiz-adv-x="736" d="M45 -7Q17 -7 4 11T7 57L382 677Q404 712 442 712Q484 712 496 671L670 60Q680 25 667 9T630 -7Q589 -7 577 39L542 172H184L97 24Q79 -7 45 -7ZM429 590L233 256H519L431 590H429ZM547 795Q501
795 501 837Q501 867 517 884T563 901Q610 901 610 860Q610 830 594 813T547 795ZM366 795Q320 795 320 837Q320 867 336 884T383 901Q429 901 429 860Q429 830 413 813T366 795Z" />
<glyph unicode="&#xc5;" glyph-name="Aring" horiz-adv-x="736" d="M45 -7Q17 -7 4 11T7 57L382 677Q404 712 442 712Q484 712 496 671L670 60Q680 25 667 9T630 -7Q589 -7 577 39L542 172H184L97 24Q79 -7 45 -7ZM429 590L233 256H519L431 590H429ZM466 756Q415
756 380 791T344 876Q344 926 379 960T466 994Q518 994 553 960T588 876Q588 826 553 791T466 756ZM466 806Q496 806 515 826T535 876Q535 905 516 924T466 944Q436 944 417 925T397 876Q397 846 416 826T466 806Z" />
<glyph unicode="&#xc6;" glyph-name="AE" horiz-adv-x="987" d="M13 -7Q-19 -7 -27 14T-19 58L459 678Q471 693 484 699T516 705H966Q1011 705 1011 672Q1011 647 997 634T961 621H582L595 400H896Q941 400 941 366Q941 342 927 329T892 316H599L611 84H868Q913
84 913 50Q913 27 900 14T863 0H571Q526 0 523 45L516 172H180L66 22Q45 -7 13 -7ZM491 587L242 256H512L493 587H491Z" />
<glyph unicode="&#xc7;" glyph-name="Ccedilla" horiz-adv-x="676" d="M387 -9Q295 -9 225 25T114 130T74 309Q74 394 99 468T173 597T289 683T446 714Q506 714 560 697T654 648Q672 634 673 616T666 582T640 561T607 567Q568 597 528 609T442 622Q361 622 303
582T215 471T184 311Q184 190 239 137T397 83Q438 83 475 94T551 133Q572 145 588 140T612 120T617 87T595 56Q550 22 496 7T387 -9ZM349 -194Q311 -194 279 -184Q260 -178 258 -163T266 -137T294 -132Q318 -140 347 -140Q375 -140 391 -131T407 -105Q407 -81 373
-81Q357 -81 340 -85Q323 -89 317 -83Q310 -76 314 -60L340 20H398L378 -40Q386 -40 392 -40Q428 -40 449 -56T471 -104Q471 -145 436 -169T349 -194Z" />
<glyph unicode="&#xc8;" glyph-name="Egrave" horiz-adv-x="589" d="M105 0Q44 0 53 60L148 654Q155 705 207 705H569Q613 705 613 672Q613 647 600 634T564 621H242L207 400H500Q543 400 543 366Q543 342 530 329T494 316H194L156 84H470Q514 84 514 50Q514 26
501 13T465 0H105ZM367 772L280 883Q265 900 269 916T288 942T319 949T349 925L421 809Q431 791 423 777T398 759T367 772Z" />
<glyph unicode="&#xc9;" glyph-name="Eacute" horiz-adv-x="589" d="M105 0Q44 0 53 60L148 654Q155 705 207 705H569Q613 705 613 672Q613 647 600 634T564 621H242L207 400H500Q543 400 543 366Q543 342 530 329T494 316H194L156 84H470Q514 84 514 50Q514 26
501 13T465 0H105ZM453 770Q438 755 422 758T399 776T404 806L497 929Q511 947 528 949T558 941T575 916T562 885L453 770Z" />
<glyph unicode="&#xca;" glyph-name="Ecircumflex" horiz-adv-x="589" d="M105 0Q44 0 53 60L148 654Q155 705 207 705H569Q613 705 613 672Q613 647 600 634T564 621H242L207 400H500Q543 400 543 366Q543 342 530 329T494 316H194L156 84H470Q514 84 514 50Q514
26 501 13T465 0H105ZM311 769Q297 754 281 756T258 771T263 800L355 914Q384 949 423 949Q443 949 457 939T483 909L549 801Q561 782 552 769T524 756T492 773L416 877L311 769Z" />
<glyph unicode="&#xcb;" glyph-name="Edieresis" horiz-adv-x="589" d="M105 0Q44 0 53 60L148 654Q155 705 207 705H569Q613 705 613 672Q613 647 600 634T564 621H242L207 400H500Q543 400 543 366Q543 342 530 329T494 316H194L156 84H470Q514 84 514 50Q514
26 501 13T465 0H105ZM505 795Q459 795 459 837Q459 867 475 884T521 901Q568 901 568 860Q568 830 552 813T505 795ZM324 795Q278 795 278 837Q278 867 294 884T341 901Q387 901 387 860Q387 830 371 813T324 795Z" />
<glyph unicode="&#xcc;" glyph-name="Igrave" horiz-adv-x="268" d="M97 -7Q70 -7 59 9T52 54L149 661Q157 712 207 712Q260 712 250 651L154 45Q145 -7 97 -7ZM174 772L87 883Q72 900 76 916T95 942T126 949T156 925L228 809Q238 791 230 777T205 759T174 772Z" />
<glyph unicode="&#xcd;" glyph-name="Iacute" horiz-adv-x="268" d="M97 -7Q70 -7 59 9T52 54L149 661Q157 712 207 712Q260 712 250 651L154 45Q145 -7 97 -7ZM260 770Q245 755 229 758T206 776T211 806L304 929Q318 947 335 949T365 941T382 916T369 885L260 770Z" />
<glyph unicode="&#xce;" glyph-name="Icircumflex" horiz-adv-x="268" d="M97 -7Q70 -7 59 9T52 54L149 661Q157 712 207 712Q260 712 250 651L154 45Q145 -7 97 -7ZM118 769Q104 754 88 756T65 771T70 800L162 914Q191 949 230 949Q250 949 264 939T290 909L356
801Q368 782 359 769T331 756T299 773L223 877L118 769Z" />
<glyph unicode="&#xcf;" glyph-name="Idieresis" horiz-adv-x="268" d="M97 -7Q70 -7 59 9T52 54L149 661Q157 712 207 712Q260 712 250 651L154 45Q145 -7 97 -7ZM312 795Q266 795 266 837Q266 867 282 884T328 901Q375 901 375 860Q375 830 359 813T312 795ZM131
795Q85 795 85 837Q85 867 101 884T148 901Q194 901 194 860Q194 830 178 813T131 795Z" />
<glyph unicode="&#xd0;" glyph-name="Eth" horiz-adv-x="751" d="M104 0Q76 0 63 15T53 60L148 654Q156 705 207 705H371Q535 705 624 627T713 407Q713 322 689 249T615 119T490 32T312 0H104ZM161 87H314Q417 87 481 129T575 244T605 406Q605 509 547 563T371
618H245L161 87ZM48 319Q5 319 5 351Q5 373 18 384T53 396H362Q405 396 405 365Q405 343 393 331T357 319H48Z" />
<glyph unicode="&#xd1;" glyph-name="Ntilde" horiz-adv-x="743" d="M93 -7Q70 -7 59 8T52 50L150 668Q157 712 198 712Q218 712 228 705T249 680L551 161L631 665Q638 712 687 712Q709 712 719 697T725 656L627 38Q620 -7 583 -7Q563 -7 551 1T528 27L226 544L146
40Q139 -7 93 -7ZM264 776Q252 777 246 786T244 811Q260 867 293 894T371 921Q398 921 422 911T467 886T509 861T549 850Q573 850 591 863T618 904Q627 928 651 927Q664 926 670 917T672 892Q656 835 623 808T544 781Q516 781 492 792T447 817T406 842T366 853Q316
853 297 798Q288 774 264 776Z" />
<glyph unicode="&#xd2;" glyph-name="Ograve" horiz-adv-x="775" d="M374 -9Q283 -9 216 26T111 130T73 296Q73 416 116 510T240 659T436 714Q528 714 595 679T700 575T737 410Q737 289 694 195T570 46T374 -9ZM376 81Q457 81 513 123T599 240T628 408Q628 518
576 571T433 624Q352 624 296 582T211 466T182 298Q182 188 233 135T376 81ZM416 772L329 883Q314 900 318 916T337 942T368 949T398 925L470 809Q480 791 472 777T447 759T416 772Z" />
<glyph unicode="&#xd3;" glyph-name="Oacute" horiz-adv-x="775" d="M374 -9Q283 -9 216 26T111 130T73 296Q73 416 116 510T240 659T436 714Q528 714 595 679T700 575T737 410Q737 289 694 195T570 46T374 -9ZM376 81Q457 81 513 123T599 240T628 408Q628 518
576 571T433 624Q352 624 296 582T211 466T182 298Q182 188 233 135T376 81ZM502 770Q487 755 471 758T448 776T453 806L546 929Q560 947 577 949T607 941T624 916T611 885L502 770Z" />
<glyph unicode="&#xd4;" glyph-name="Ocircumflex" horiz-adv-x="775" d="M374 -9Q283 -9 216 26T111 130T73 296Q73 416 116 510T240 659T436 714Q528 714 595 679T700 575T737 410Q737 289 694 195T570 46T374 -9ZM376 81Q457 81 513 123T599 240T628 408Q628
518 576 571T433 624Q352 624 296 582T211 466T182 298Q182 188 233 135T376 81ZM360 769Q346 754 330 756T307 771T312 800L404 914Q433 949 472 949Q492 949 506 939T532 909L598 801Q610 782 601 769T573 756T541 773L465 877L360 769Z" />
<glyph unicode="&#xd5;" glyph-name="Otilde" horiz-adv-x="775" d="M374 -9Q283 -9 216 26T111 130T73 296Q73 416 116 510T240 659T436 714Q528 714 595 679T700 575T737 410Q737 289 694 195T570 46T374 -9ZM376 81Q457 81 513 123T599 240T628 408Q628 518
576 571T433 624Q352 624 296 582T211 466T182 298Q182 188 233 135T376 81ZM269 776Q257 777 251 786T249 811Q265 867 298 894T376 921Q403 921 427 911T472 886T514 861T554 850Q578 850 596 863T623 904Q632 928 656 927Q669 926 675 917T677 892Q661 835 628
808T549 781Q521 781 497 792T452 817T411 842T371 853Q321 853 302 798Q293 774 269 776Z" />
<glyph unicode="&#xd6;" glyph-name="Odieresis" horiz-adv-x="775" d="M374 -9Q283 -9 216 26T111 130T73 296Q73 416 116 510T240 659T436 714Q528 714 595 679T700 575T737 410Q737 289 694 195T570 46T374 -9ZM376 81Q457 81 513 123T599 240T628 408Q628
518 576 571T433 624Q352 624 296 582T211 466T182 298Q182 188 233 135T376 81ZM554 795Q508 795 508 837Q508 867 524 884T570 901Q617 901 617 860Q617 830 601 813T554 795ZM373 795Q327 795 327 837Q327 867 343 884T390 901Q436 901 436 860Q436 830 420
813T373 795Z" />
<glyph unicode="&#xd7;" glyph-name="multiply" horiz-adv-x="600" d="M131 72Q116 58 101 59T76 71T66 96T79 124L255 287L109 446Q96 460 98 475T111 500T137 510T166 495L310 338L485 498Q500 512 514 511T539 499T549 473T536 446L359 284L507 121Q520 107
518 93T505 69T479 59T451 74L305 232L131 72Z" />
<glyph unicode="&#xd8;" glyph-name="Oslash" horiz-adv-x="775" d="M374 -9Q283 -9 216 26T111 130T73 296Q73 416 116 510T240 659T436 714Q528 714 595 679T700 575T737 410Q737 289 694 195T570 46T374 -9ZM376 81Q457 81 513 123T599 240T628 408Q628 518
576 571T433 624Q352 624 296 582T211 466T182 298Q182 188 233 135T376 81ZM171 -24Q160 -39 146 -40T119 -33T104 -10T113 21L171 98L203 142L547 606L580 651L637 727Q649 743 664 744T690 737T705 714T696 683L639 607L607 563L263 99L230 55L171 -24Z" />
<glyph unicode="&#xd9;" glyph-name="Ugrave" horiz-adv-x="733" d="M338 -9Q249 -9 187 25T97 128T87 302L144 664Q151 712 201 712Q227 712 238 697T246 655L189 293Q155 81 344 81Q435 81 487 127T556 275L618 664Q625 712 675 712Q700 712 711 697T719 655L659
274Q637 134 560 63T338 -9ZM406 772L319 883Q304 900 308 916T327 942T358 949T388 925L460 809Q470 791 462 777T437 759T406 772Z" />
<glyph unicode="&#xda;" glyph-name="Uacute" horiz-adv-x="733" d="M338 -9Q249 -9 187 25T97 128T87 302L144 664Q151 712 201 712Q227 712 238 697T246 655L189 293Q155 81 344 81Q435 81 487 127T556 275L618 664Q625 712 675 712Q700 712 711 697T719 655L659
274Q637 134 560 63T338 -9ZM492 770Q477 755 461 758T438 776T443 806L536 929Q550 947 567 949T597 941T614 916T601 885L492 770Z" />
<glyph unicode="&#xdb;" glyph-name="Ucircumflex" horiz-adv-x="733" d="M338 -9Q249 -9 187 25T97 128T87 302L144 664Q151 712 201 712Q227 712 238 697T246 655L189 293Q155 81 344 81Q435 81 487 127T556 275L618 664Q625 712 675 712Q700 712 711 697T719
655L659 274Q637 134 560 63T338 -9ZM350 769Q336 754 320 756T297 771T302 800L394 914Q423 949 462 949Q482 949 496 939T522 909L588 801Q600 782 591 769T563 756T531 773L455 877L350 769Z" />
<glyph unicode="&#xdc;" glyph-name="Udieresis" horiz-adv-x="733" d="M338 -9Q249 -9 187 25T97 128T87 302L144 664Q151 712 201 712Q227 712 238 697T246 655L189 293Q155 81 344 81Q435 81 487 127T556 275L618 664Q625 712 675 712Q700 712 711 697T719
655L659 274Q637 134 560 63T338 -9ZM544 795Q498 795 498 837Q498 867 514 884T560 901Q607 901 607 860Q607 830 591 813T544 795ZM363 795Q317 795 317 837Q317 867 333 884T380 901Q426 901 426 860Q426 830 410 813T363 795Z" />
<glyph unicode="&#xdd;" glyph-name="Yacute" horiz-adv-x="606" d="M263 -7Q238 -7 228 9T221 53L265 328L92 638Q75 667 87 689T130 712Q149 712 160 704T184 674L325 420L553 681Q568 698 580 705T611 712Q640 712 651 688T639 638L368 330L322 44Q314 -7 263
-7ZM420 770Q405 755 389 758T366 776T371 806L464 929Q478 947 495 949T525 941T542 916T529 885L420 770Z" />
<glyph unicode="&#xde;" glyph-name="Thorn" horiz-adv-x="643" d="M95 -7Q70 -7 59 9T52 54L148 657Q156 709 208 709Q232 709 244 696T252 661L239 582H400Q512 582 572 533T632 390Q632 279 563 215T362 151H171L154 44Q146 -7 95 -7ZM184 234H368Q448 234
490 272T532 382Q532 443 496 471T390 499H226L184 234Z" />
<glyph unicode="&#xdf;" glyph-name="germandbls" horiz-adv-x="632" d="M393 -9Q347 -9 303 2T228 34Q210 45 207 61T210 91T231 110T262 105Q321 68 393 68Q442 68 468 86T495 139Q495 162 477 180T405 217Q339 240 312 269T284 341Q284 382 305 412T380 483Q409
506 426 526T443 578Q443 602 425 620T370 638Q235 638 211 486L140 41Q133 -7 85 -7Q32 -7 41 49L108 474Q126 592 190 653T372 714Q450 714 494 677T539 589Q539 542 516 511T451 446Q414 416 397 398T379 354Q379 333 397 317T466 283Q525 262 557 232T589 149Q589
74 535 33T393 -9Z" />
<glyph unicode="&#xe0;" glyph-name="agrave" horiz-adv-x="537" d="M196 -9Q153 -9 116 10T57 63T35 139Q35 216 101 251T310 286H379L383 310Q392 363 368 391T285 419Q250 419 218 412T152 388Q133 378 118 383T97 402T96 432T126 459Q166 478 210 487T297
497Q406 497 448 438T476 284L438 43Q430 -7 383 -7Q361 -7 350 7T343 49L347 74Q322 31 282 11T196 -9ZM225 63Q276 63 315 96T364 190L369 224H319Q215 224 175 207T135 145Q135 105 161 84T225 63ZM276 561L176 704Q162 724 167 740T187 763T221 766T251 738L331
591Q341 572 332 558T306 543T276 561Z" />
<glyph unicode="&#xe1;" glyph-name="aacute" horiz-adv-x="537" d="M196 -9Q153 -9 116 10T57 63T35 139Q35 216 101 251T310 286H379L383 310Q392 363 368 391T285 419Q250 419 218 412T152 388Q133 378 118 383T97 402T96 432T126 459Q166 478 210 487T297
497Q406 497 448 438T476 284L438 43Q430 -7 383 -7Q361 -7 350 7T343 49L347 74Q322 31 282 11T196 -9ZM225 63Q276 63 315 96T364 190L369 224H319Q215 224 175 207T135 145Q135 105 161 84T225 63ZM356 557Q343 541 327 543T304 559T308 591L411 747Q424 767
441 769T471 763T488 737T478 704L356 557Z" />
<glyph unicode="&#xe2;" glyph-name="acircumflex" horiz-adv-x="537" d="M196 -9Q153 -9 116 10T57 63T35 139Q35 216 101 251T310 286H379L383 310Q392 363 368 391T285 419Q250 419 218 412T152 388Q133 378 118 383T97 402T96 432T126 459Q166 478 210 487T297
497Q406 497 448 438T476 284L438 43Q430 -7 383 -7Q361 -7 350 7T343 49L347 74Q322 31 282 11T196 -9ZM225 63Q276 63 315 96T364 190L369 224H319Q215 224 175 207T135 145Q135 105 161 84T225 63ZM455 588Q463 568 453 556T426 544T401 559L331 693L230 558Q219
542 203 543T179 557T182 588L275 731Q299 769 336 769Q374 769 392 731L455 588Z" />
<glyph unicode="&#xe3;" glyph-name="atilde" horiz-adv-x="537" d="M196 -9Q153 -9 116 10T57 63T35 139Q35 216 101 251T310 286H379L383 310Q392 363 368 391T285 419Q250 419 218 412T152 388Q133 378 118 383T97 402T96 432T126 459Q166 478 210 487T297
497Q406 497 448 438T476 284L438 43Q430 -7 383 -7Q361 -7 350 7T343 49L347 74Q322 31 282 11T196 -9ZM225 63Q276 63 315 96T364 190L369 224H319Q215 224 175 207T135 145Q135 105 161 84T225 63ZM164 585Q151 586 145 594T142 617Q154 672 185 701T258 731Q283
731 300 720T333 695T362 670T396 659Q417 659 434 674T458 714Q465 738 491 736Q503 735 509 727T513 704Q500 650 469 621T396 591Q372 591 354 601T321 626T291 651T258 662Q237 662 220 647T196 607Q190 584 164 585Z" />
<glyph unicode="&#xe4;" glyph-name="adieresis" horiz-adv-x="537" d="M196 -9Q153 -9 116 10T57 63T35 139Q35 216 101 251T310 286H379L383 310Q392 363 368 391T285 419Q250 419 218 412T152 388Q133 378 118 383T97 402T96 432T126 459Q166 478 210 487T297
497Q406 497 448 438T476 284L438 43Q430 -7 383 -7Q361 -7 350 7T343 49L347 74Q322 31 282 11T196 -9ZM225 63Q276 63 315 96T364 190L369 224H319Q215 224 175 207T135 145Q135 105 161 84T225 63ZM417 600Q371 600 371 642Q371 671 387 688T433 706Q479 706
479 665Q479 635 463 618T417 600ZM236 600Q189 600 189 642Q189 671 205 688T251 706Q298 706 298 665Q298 635 282 618T236 600Z" />
<glyph unicode="&#xe5;" glyph-name="aring" horiz-adv-x="537" d="M196 -9Q153 -9 116 10T57 63T35 139Q35 216 101 251T310 286H379L383 310Q392 363 368 391T285 419Q250 419 218 412T152 388Q133 378 118 383T97 402T96 432T126 459Q166 478 210 487T297 497Q406
497 448 438T476 284L438 43Q430 -7 383 -7Q361 -7 350 7T343 49L347 74Q322 31 282 11T196 -9ZM225 63Q276 63 315 96T364 190L369 224H319Q215 224 175 207T135 145Q135 105 161 84T225 63ZM336 546Q285 546 250 580T214 665Q214 715 249 749T336 784Q388 784
423 750T458 665Q458 615 423 581T336 546ZM336 596Q366 596 385 616T405 665Q405 695 386 714T336 734Q306 734 287 715T268 665Q268 636 287 616T336 596Z" />
<glyph unicode="&#xe6;" glyph-name="ae" horiz-adv-x="863" d="M212 -9Q166 -9 126 8T60 58T35 139Q35 216 101 250T310 285H380L383 304Q402 419 285 419Q250 419 218 412T152 388Q133 378 118 383T97 402T96 432T126 459Q166 478 210 487T297 497Q415 497 451
415Q483 453 528 475T631 497Q693 497 733 476T796 419T826 341T827 258L825 245Q823 223 797 223H465Q460 152 497 111T607 69Q640 69 672 76T734 103Q754 115 768 111T788 94T791 66T769 38Q734 14 687 3T599 -9Q526 -9 476 20T401 102Q373 45 323 18T212 -9ZM630
426Q584 426 553 406T502 353T475 285H746Q750 344 724 385T630 426ZM225 64Q276 64 315 94T364 184L370 223H319Q216 223 176 206T135 145Q135 106 161 85T225 64Z" />
<glyph unicode="&#xe7;" glyph-name="ccedilla" horiz-adv-x="467" d="M264 -9Q151 -9 96 51T41 210Q41 264 57 315T106 407T189 472T309 497Q346 497 381 488T443 462Q464 450 469 434T468 403T447 383T416 387Q370 417 314 417Q253 417 216 387T162 309T145
211Q145 147 175 109T277 71Q298 71 322 77T372 99Q387 107 400 102T420 84T424 55T402 29Q375 11 337 1T264 -9ZM222 -194Q184 -194 152 -184Q133 -178 131 -163T139 -137T167 -132Q191 -140 220 -140Q248 -140 264 -131T280 -105Q280 -81 246 -81Q230 -81 213
-85Q196 -89 190 -83Q183 -76 187 -60L213 20H271L251 -40Q259 -40 265 -40Q301 -40 322 -56T344 -104Q344 -145 309 -169T222 -194Z" />
<glyph unicode="&#xe8;" glyph-name="egrave" horiz-adv-x="537" d="M275 -9Q167 -9 104 49T41 209Q41 289 74 354T166 458T305 497Q384 497 429 462T490 370T500 252Q498 233 490 227T467 221H137Q132 151 170 110T282 69Q315 69 348 77T409 103Q429 115 443
111T463 94T466 66T444 38Q409 14 363 3T275 -9ZM304 426Q257 426 225 406T173 353T146 283H420Q425 343 398 384T304 426ZM285 561L185 704Q171 724 176 740T196 763T230 766T260 738L340 591Q350 572 341 558T315 543T285 561Z" />
<glyph unicode="&#xe9;" glyph-name="eacute" horiz-adv-x="537" d="M275 -9Q167 -9 104 49T41 209Q41 289 74 354T166 458T305 497Q384 497 429 462T490 370T500 252Q498 233 490 227T467 221H137Q132 151 170 110T282 69Q315 69 348 77T409 103Q429 115 443
111T463 94T466 66T444 38Q409 14 363 3T275 -9ZM304 426Q257 426 225 406T173 353T146 283H420Q425 343 398 384T304 426ZM365 557Q352 541 336 543T313 559T317 591L420 747Q433 767 450 769T480 763T497 737T487 704L365 557Z" />
<glyph unicode="&#xea;" glyph-name="ecircumflex" horiz-adv-x="537" d="M275 -9Q167 -9 104 49T41 209Q41 289 74 354T166 458T305 497Q384 497 429 462T490 370T500 252Q498 233 490 227T467 221H137Q132 151 170 110T282 69Q315 69 348 77T409 103Q429 115
443 111T463 94T466 66T444 38Q409 14 363 3T275 -9ZM304 426Q257 426 225 406T173 353T146 283H420Q425 343 398 384T304 426ZM464 588Q472 568 462 556T435 544T410 559L340 693L239 558Q228 542 212 543T188 557T191 588L284 731Q308 769 345 769Q383 769 401
731L464 588Z" />
<glyph unicode="&#xeb;" glyph-name="edieresis" horiz-adv-x="537" d="M275 -9Q167 -9 104 49T41 209Q41 289 74 354T166 458T305 497Q384 497 429 462T490 370T500 252Q498 233 490 227T467 221H137Q132 151 170 110T282 69Q315 69 348 77T409 103Q429 115 443
111T463 94T466 66T444 38Q409 14 363 3T275 -9ZM304 426Q257 426 225 406T173 353T146 283H420Q425 343 398 384T304 426ZM426 600Q380 600 380 642Q380 671 396 688T442 706Q488 706 488 665Q488 635 472 618T426 600ZM245 600Q198 600 198 642Q198 671 214 688T260
706Q307 706 307 665Q307 635 291 618T245 600Z" />
<glyph unicode="&#xec;" glyph-name="igrave" horiz-adv-x="243" d="M81 -7Q58 -7 47 8T40 52L103 445Q111 495 161 495Q184 495 195 480T202 436L139 43Q131 -7 81 -7ZM129 561L29 704Q15 724 20 740T40 763T74 766T104 738L184 591Q194 572 185 558T159 543T129 561Z" />
<glyph unicode="&#xed;" glyph-name="iacute" horiz-adv-x="243" d="M81 -7Q58 -7 47 8T40 52L103 445Q111 495 161 495Q184 495 195 480T202 436L139 43Q131 -7 81 -7ZM209 557Q196 541 180 543T157 559T161 591L264 747Q277 767 294 769T324 763T341 737T331
704L209 557Z" />
<glyph unicode="&#xee;" glyph-name="icircumflex" horiz-adv-x="243" d="M81 -7Q58 -7 47 8T40 52L103 445Q111 495 161 495Q184 495 195 480T202 436L139 43Q131 -7 81 -7ZM308 588Q316 568 306 556T279 544T254 559L184 693L83 558Q72 542 56 543T32 557T35
588L128 731Q152 769 189 769Q227 769 245 731L308 588Z" />
<glyph unicode="&#xef;" glyph-name="idieresis" horiz-adv-x="243" d="M81 -7Q58 -7 47 8T40 52L103 445Q111 495 161 495Q184 495 195 480T202 436L139 43Q131 -7 81 -7ZM270 600Q224 600 224 642Q224 671 240 688T286 706Q332 706 332 665Q332 635 316 618T270
600ZM89 600Q42 600 42 642Q42 671 58 688T104 706Q151 706 151 665Q151 635 135 618T89 600Z" />
<glyph unicode="&#xf0;" glyph-name="eth" horiz-adv-x="569" d="M257 -9Q194 -9 145 15T67 85T38 190Q38 267 71 326T160 418T288 451Q338 451 378 433T442 376Q428 505 336 581L205 524Q187 516 176 526T164 551T183 575L281 617Q267 625 251 631T217 643Q199
649 192 661T188 687T205 707T238 708Q275 698 306 685T365 654L486 707Q505 715 517 705T528 680T508 656L416 616Q478 559 506 482T534 316Q534 250 518 192T467 88T381 17T257 -9ZM265 71Q331 71 376 118T421 250Q421 308 388 340T296 373Q230 373 185 326T140
193Q140 135 173 103T265 71Z" />
<glyph unicode="&#xf1;" glyph-name="ntilde" horiz-adv-x="576" d="M82 -7Q59 -7 48 9T41 53L103 445Q110 495 161 495Q183 495 194 481T200 439L195 406Q222 450 266 473T368 497Q448 497 489 448T515 294L476 43Q468 -7 418 -7Q394 -7 383 8T376 52L414 292Q434
416 332 416Q265 416 226 375T175 263L140 43Q133 -7 82 -7ZM182 585Q169 586 163 594T160 617Q172 672 203 701T276 731Q301 731 318 720T351 695T380 670T414 659Q435 659 452 674T476 714Q483 738 509 736Q521 735 527 727T531 704Q518 650 487 621T414 591Q390
591 372 601T339 626T309 651T276 662Q255 662 238 647T214 607Q208 584 182 585Z" />
<glyph unicode="&#xf2;" glyph-name="ograve" horiz-adv-x="565" d="M261 -9Q158 -9 100 49T41 208Q41 293 75 358T168 460T304 497Q407 497 465 439T524 280Q524 195 490 130T397 28T261 -9ZM263 69Q314 69 349 98T403 175T422 283Q422 349 390 383T302 418Q251
418 216 390T162 313T143 204Q143 138 175 104T263 69ZM292 561L192 704Q178 724 183 740T203 763T237 766T267 738L347 591Q357 572 348 558T322 543T292 561Z" />
<glyph unicode="&#xf3;" glyph-name="oacute" horiz-adv-x="565" d="M261 -9Q158 -9 100 49T41 208Q41 293 75 358T168 460T304 497Q407 497 465 439T524 280Q524 195 490 130T397 28T261 -9ZM263 69Q314 69 349 98T403 175T422 283Q422 349 390 383T302 418Q251
418 216 390T162 313T143 204Q143 138 175 104T263 69ZM372 557Q359 541 343 543T320 559T324 591L427 747Q440 767 457 769T487 763T504 737T494 704L372 557Z" />
<glyph unicode="&#xf4;" glyph-name="ocircumflex" horiz-adv-x="565" d="M261 -9Q158 -9 100 49T41 208Q41 293 75 358T168 460T304 497Q407 497 465 439T524 280Q524 195 490 130T397 28T261 -9ZM263 69Q314 69 349 98T403 175T422 283Q422 349 390 383T302
418Q251 418 216 390T162 313T143 204Q143 138 175 104T263 69ZM471 588Q479 568 469 556T442 544T417 559L347 693L246 558Q235 542 219 543T195 557T198 588L291 731Q315 769 352 769Q390 769 408 731L471 588Z" />
<glyph unicode="&#xf5;" glyph-name="otilde" horiz-adv-x="565" d="M261 -9Q158 -9 100 49T41 208Q41 293 75 358T168 460T304 497Q407 497 465 439T524 280Q524 195 490 130T397 28T261 -9ZM263 69Q314 69 349 98T403 175T422 283Q422 349 390 383T302 418Q251
418 216 390T162 313T143 204Q143 138 175 104T263 69ZM180 585Q167 586 161 594T158 617Q170 672 201 701T274 731Q299 731 316 720T349 695T378 670T412 659Q433 659 450 674T474 714Q481 738 507 736Q519 735 525 727T529 704Q516 650 485 621T412 591Q388 591
370 601T337 626T307 651T274 662Q253 662 236 647T212 607Q206 584 180 585Z" />
<glyph unicode="&#xf6;" glyph-name="odieresis" horiz-adv-x="565" d="M261 -9Q158 -9 100 49T41 208Q41 293 75 358T168 460T304 497Q407 497 465 439T524 280Q524 195 490 130T397 28T261 -9ZM263 69Q314 69 349 98T403 175T422 283Q422 349 390 383T302 418Q251
418 216 390T162 313T143 204Q143 138 175 104T263 69ZM433 600Q387 600 387 642Q387 671 403 688T449 706Q495 706 495 665Q495 635 479 618T433 600ZM252 600Q205 600 205 642Q205 671 221 688T267 706Q314 706 314 665Q314 635 298 618T252 600Z" />
<glyph unicode="&#xf7;" glyph-name="divide" horiz-adv-x="600" d="M324 433Q303 433 292 444T280 475Q280 502 296 519T340 536Q385 536 385 495Q385 468 369 451T324 433ZM95 250Q56 250 56 280Q56 324 99 324H519Q558 324 558 294Q558 250 515 250H95ZM262
37Q240 37 229 48T217 79Q217 106 233 123T278 140Q321 140 321 99Q321 72 306 55T262 37Z" />
<glyph unicode="&#xf8;" glyph-name="oslash" horiz-adv-x="565" d="M123 -26Q110 -42 94 -39T71 -21T76 12L102 47Q42 106 42 209Q42 293 76 358T169 460T305 497Q368 497 416 474L445 513Q457 529 473 526T496 508T491 475L465 440Q525 381 525 280Q525 195
491 130T398 28T261 -9Q199 -9 152 13L123 -26ZM135 204Q135 152 155 119L368 409Q340 423 300 423Q248 423 211 395T155 316T135 204ZM265 64Q318 64 355 93T411 172T430 285Q430 335 412 367L199 78Q227 64 265 64Z" />
<glyph unicode="&#xf9;" glyph-name="ugrave" horiz-adv-x="569" d="M206 -9Q127 -9 86 40T61 195L101 448Q108 495 157 495Q181 495 193 481T201 439L162 195Q144 72 242 72Q305 72 344 113T395 225L430 448Q437 495 485 495Q510 495 521 480T529 439L466 41Q459
-7 411 -7Q361 -7 369 46L374 79Q317 -9 206 -9ZM289 562L189 705Q175 725 180 741T200 764T234 767T264 739L344 592Q354 573 345 559T319 544T289 562Z" />
<glyph unicode="&#xfa;" glyph-name="uacute" horiz-adv-x="569" d="M206 -9Q127 -9 86 40T61 195L101 448Q108 495 157 495Q181 495 193 481T201 439L162 195Q144 72 242 72Q305 72 344 113T395 225L430 448Q437 495 485 495Q510 495 521 480T529 439L466 41Q459
-7 411 -7Q361 -7 369 46L374 79Q317 -9 206 -9ZM369 558Q356 542 340 544T317 560T321 592L424 748Q437 768 454 770T484 764T501 738T491 705L369 558Z" />
<glyph unicode="&#xfb;" glyph-name="ucircumflex" horiz-adv-x="569" d="M206 -9Q127 -9 86 40T61 195L101 448Q108 495 157 495Q181 495 193 481T201 439L162 195Q144 72 242 72Q305 72 344 113T395 225L430 448Q437 495 485 495Q510 495 521 480T529 439L466
41Q459 -7 411 -7Q361 -7 369 46L374 79Q317 -9 206 -9ZM468 589Q476 569 466 557T439 545T414 560L344 694L243 559Q232 543 216 544T192 558T195 589L288 732Q312 770 349 770Q387 770 405 732L468 589Z" />
<glyph unicode="&#xfc;" glyph-name="udieresis" horiz-adv-x="569" d="M206 -9Q127 -9 86 40T61 195L101 448Q108 495 157 495Q181 495 193 481T201 439L162 195Q144 72 242 72Q305 72 344 113T395 225L430 448Q437 495 485 495Q510 495 521 480T529 439L466
41Q459 -7 411 -7Q361 -7 369 46L374 79Q317 -9 206 -9ZM430 601Q384 601 384 643Q384 672 400 689T446 707Q492 707 492 666Q492 636 476 619T430 601ZM249 601Q202 601 202 643Q202 672 218 689T264 707Q311 707 311 666Q311 636 295 619T249 601Z" />
<glyph unicode="&#xfd;" glyph-name="yacute" horiz-adv-x="520" d="M121 -187Q92 -187 83 -168T89 -123L171 13L59 425Q51 455 64 475T105 495Q127 495 137 485T154 449L236 117L432 458Q442 478 454 486T487 495Q516 495 526 475T521 429L176 -151Q165 -170
153 -178T121 -187ZM335 557Q322 541 306 543T283 559T287 591L390 747Q403 767 420 769T450 763T467 737T457 704L335 557Z" />
<glyph unicode="&#xfe;" glyph-name="thorn" horiz-adv-x="591" d="M54 -187Q30 -187 19 -172T12 -129L137 661Q145 712 195 712Q219 712 230 698T237 655L199 412Q227 453 269 475T364 497Q448 497 499 441T550 287Q550 206 521 139T438 31T306 -9Q252 -9 210
15T147 88L111 -139Q103 -187 54 -187ZM290 69Q341 69 376 98T429 175T448 283Q448 349 417 383T328 418Q277 418 242 390T188 313T169 204Q169 138 201 104T290 69Z" />
<glyph unicode="&#xff;" glyph-name="ydieresis" horiz-adv-x="520" d="M121 -187Q92 -187 83 -168T89 -123L171 13L59 425Q51 455 64 475T105 495Q127 495 137 485T154 449L236 117L432 458Q442 478 454 486T487 495Q516 495 526 475T521 429L176 -151Q165 -170
153 -178T121 -187ZM396 600Q350 600 350 642Q350 671 366 688T412 706Q458 706 458 665Q458 635 442 618T396 600ZM215 600Q168 600 168 642Q168 671 184 688T230 706Q277 706 277 665Q277 635 261 618T215 600Z" />
<glyph unicode="&#x2013;" glyph-name="endash" horiz-adv-x="500" d="M30 235Q-5 235 -5 263Q-5 278 6 288T34 298H477Q513 298 513 271Q513 255 501 245T474 235H30Z" />
<glyph unicode="&#x2014;" glyph-name="emdash" horiz-adv-x="1000" d="M32 235Q-4 235 -4 263Q-4 278 7 288T35 298H975Q1011 298 1011 271Q1011 255 1000 245T973 235H32Z" />
<glyph unicode="&#x2018;" glyph-name="quoteleft" horiz-adv-x="237" d="M173 692Q191 709 207 705T227 685T215 653Q184 622 174 593Q198 589 212 573T227 531Q227 503 210 486T164 468Q135 468 119 487T103 538Q103 625 173 692Z" />
<glyph unicode="&#x2019;" glyph-name="quoteright" horiz-adv-x="237" d="M173 484Q156 468 140 472T120 491T132 524Q163 554 173 583Q148 587 134 603T119 646Q119 674 136 691T182 709Q212 709 228 690T244 639Q244 553 173 484Z" />
<glyph unicode="&#x201a;" glyph-name="quotesinglbase" horiz-adv-x="237" d="M81 -102Q63 -119 47 -115T27 -95T39 -63Q70 -32 80 -3Q56 1 42 17T27 60Q27 88 44 105T90 123Q119 123 135 104T151 53Q151 -34 81 -102Z" />
<glyph unicode="&#x201c;" glyph-name="quotedblleft" horiz-adv-x="416" d="M173 692Q191 709 207 705T227 685T215 653Q184 622 174 593Q198 589 212 573T227 531Q227 503 210 486T164 468Q135 468 119 487T103 538Q103 625 173 692ZM352 692Q370 709 386 705T406
685T394 653Q363 622 353 593Q377 589 391 573T406 531Q406 503 389 486T343 468Q314 468 298 487T282 538Q282 625 352 692Z" />
<glyph unicode="&#x201d;" glyph-name="quotedblright" horiz-adv-x="416" d="M173 484Q156 468 140 472T120 491T132 524Q163 554 173 583Q148 587 134 603T119 646Q119 674 136 691T182 709Q212 709 228 690T244 639Q244 553 173 484ZM352 484Q335 468 319 472T299
491T311 524Q342 554 352 583Q327 587 313 603T298 646Q298 674 315 691T361 709Q391 709 407 690T423 639Q423 553 352 484Z" />
<glyph unicode="&#x201e;" glyph-name="quotedblbase" horiz-adv-x="416" d="M81 -102Q63 -119 47 -115T27 -95T39 -63Q70 -32 80 -3Q56 1 42 17T27 60Q27 88 44 105T90 123Q119 123 135 104T151 53Q151 -34 81 -102ZM260 -102Q242 -119 226 -115T206 -95T218
-63Q249 -32 259 -3Q235 1 221 17T206 60Q206 88 223 105T269 123Q298 123 314 104T330 53Q330 -34 260 -102Z" />
<glyph unicode="&#x2022;" glyph-name="bullet" horiz-adv-x="524" d="M265 88Q216 88 175 111T109 175T84 265Q84 311 107 351T172 417T265 443Q313 443 354 420T421 357T446 265Q446 216 422 176T356 112T265 88Z" />
<glyph unicode="&#x2039;" glyph-name="guilsinglleft" horiz-adv-x="272" d="M171 89Q152 82 137 88T113 113L62 232Q55 247 57 264T72 299L175 432Q185 445 199 448T227 444Q243 436 245 419T231 379L149 262L189 141Q202 102 171 89Z" />
<glyph unicode="&#x203a;" glyph-name="guilsinglright" horiz-adv-x="272" d="M52 88Q36 96 34 113T49 154L130 271L90 391Q78 431 108 443Q127 450 142 444T166 419L217 301Q224 285 222 268T207 233L104 100Q94 87 80 84T52 88Z" />
</font>
</defs>
</svg>
