<?xml version="1.0" standalone="no"?>
<!DOCTYPE svg PUBLIC "-//W3C//DTD SVG 1.1//EN" "http://www.w3.org/Graphics/SVG/1.1/DTD/svg11.dtd">
<svg xmlns="http://www.w3.org/2000/svg">
<defs >
<font id="Nunito" horiz-adv-x="573" ><font-face
    font-family="Nunito Light"
    units-per-em="1000"
    panose-1="0 0 0 0 0 0 0 0 0 0"
    ascent="1011"
    descent="-353"
    alphabetic="0" />
<glyph unicode=" " glyph-name="space" horiz-adv-x="252" />
<glyph unicode="!" glyph-name="exclam" horiz-adv-x="219" d="M101 169Q80 169 82 193L143 675Q147 711 182 711Q200 711 209 700T214 669L123 190Q121 182 116 176T101 169ZM79 -3Q59 -3 46 10T33 43Q33 63 46 76T79 89Q100 89 112 76T125 43Q125 23 113 10T79 -3Z" />
<glyph unicode="&quot;" glyph-name="quotedbl" horiz-adv-x="366" d="M137 428Q128 428 122 434T117 455L140 680Q141 693 150 702T176 711Q193 711 202 701T208 672L161 452Q156 428 137 428ZM292 428Q283 428 277 434T272 455L295 680Q296 693 305 702T331
711Q348 711 357 701T363 672L316 452Q311 428 292 428Z" />
<glyph unicode="#" glyph-name="numbersign" horiz-adv-x="600" d="M78 -6Q65 -6 61 3T62 29L119 187H53Q42 187 34 191T25 208Q25 236 56 236H136L221 477H119Q108 477 99 482T90 499Q90 527 121 527H238L295 687Q304 711 328 711Q340 711 344 702T343 676L291
527H465L521 687Q529 711 554 711Q582 711 570 676L518 527H583Q594 527 602 522T611 505Q611 477 580 477H500L415 236H517Q528 236 537 231T546 214Q546 187 515 187H398L338 18Q328 -6 304 -6Q291 -6 287 3T288 29L345 187H171L112 18Q102 -6 78 -6ZM188 236H362L448
477H273L188 236Z" />
<glyph unicode="$" glyph-name="dollar" horiz-adv-x="600" d="M255 -121Q242 -121 235 -113T231 -88L244 -3Q118 6 45 68Q29 80 31 96T46 120T79 114Q119 83 168 68T288 52Q339 52 380 67T446 111T471 184Q471 233 441 262T331 313L246 336Q177 354 136 394T95
512Q95 576 130 620T224 687T357 710L370 797Q374 821 400 821Q411 821 418 814T423 789L410 705Q457 697 499 677T573 624Q584 614 581 600T565 579T534 586Q459 653 351 653Q263 653 211 618T158 515Q158 458 185 432T265 391L350 368Q448 342 491 300T534 190Q534
130 502 88T416 22T297 -4L283 -97Q279 -121 255 -121Z" />
<glyph unicode="%" glyph-name="percent" horiz-adv-x="923" d="M250 -4Q237 -21 223 -20T202 -5T208 26L706 705Q718 722 733 721T754 707T749 677L250 -4ZM239 282Q173 282 135 324T97 442Q97 516 120 577T188 676T300 713Q366 713 404 670T442 552Q442 478
419 417T351 319T239 282ZM239 329Q288 329 320 358T368 437T386 547Q389 609 364 637T300 666Q251 666 219 637T171 558T152 447Q150 385 175 357T239 329ZM658 -8Q591 -8 553 34T515 152Q515 226 538 287T607 386T718 423Q784 423 822 380T860 262Q860 188 837
127T769 29T658 -8ZM657 39Q706 39 738 68T786 147T805 257Q807 319 782 347T718 376Q670 376 638 347T589 267T571 157Q569 95 593 67T657 39Z" />
<glyph unicode="&amp;" glyph-name="ampersand" horiz-adv-x="678" d="M247 -8Q157 -8 104 33T50 145Q50 201 79 246T151 325T236 384L259 396Q227 440 213 477T199 545Q199 621 248 667T379 713Q441 713 477 679T514 589Q514 542 492 508T431 443T340 383L485
181Q512 220 533 273T567 389Q573 415 598 415Q612 415 618 407T622 384Q589 235 519 137L594 34Q606 19 598 6T571 -7Q554 -7 545 6L482 94Q438 45 379 19T247 -8ZM376 663Q323 663 291 631T258 551Q258 519 269 492T311 423Q366 456 398 482T445 532T459 585Q459
620 437 641T376 663ZM249 44Q313 44 362 67T450 135L288 356L267 343Q198 303 155 258T111 151Q111 44 249 44Z" />
<glyph unicode="&apos;" glyph-name="quotesingle" horiz-adv-x="211" d="M137 428Q128 428 122 434T117 455L140 680Q141 693 150 702T176 711Q193 711 202 701T208 672L161 452Q156 428 137 428Z" />
<glyph unicode="(" glyph-name="parenleft" horiz-adv-x="299" d="M138 -161Q120 -92 111 -24T101 110Q101 221 122 327T183 527T275 697Q286 712 300 711T322 699T320 669Q248 543 207 402T165 100Q165 40 172 -22T190 -149Q194 -169 183 -178T157 -184T138 -161Z" />
<glyph unicode=")" glyph-name="parenright" horiz-adv-x="299" d="M29 -170Q19 -185 5 -185T-18 -173T-16 -143Q57 -17 98 124T139 426Q139 486 133 548T114 675Q111 695 122 704T147 710T166 687Q184 618 194 550T204 416Q204 250 157 99T29 -170Z" />
<glyph unicode="*" glyph-name="asterisk" horiz-adv-x="449" d="M175 372Q154 385 171 413L235 517L113 513Q80 513 80 537Q80 561 113 561L236 557L171 662Q154 690 175 703Q185 709 195 704T212 685L271 576L329 685Q337 699 347 704T367 703Q388 689 370 662L306
557L429 561Q462 561 462 537Q462 513 429 513L307 517L370 413Q388 385 367 373Q357 366 347 371T329 390L271 498L212 389Q205 376 195 371T175 372Z" />
<glyph unicode="+" glyph-name="plus" horiz-adv-x="600" d="M268 34Q240 34 246 66L277 262H84Q57 262 57 282Q57 312 87 312H285L315 507Q320 534 345 534Q372 534 367 503L337 312H530Q557 312 557 291Q557 262 527 262H329L297 61Q293 34 268 34Z" />
<glyph unicode="," glyph-name="comma" horiz-adv-x="219" d="M67 -91Q54 -104 43 -101T28 -87T37 -62Q65 -32 73 -3Q55 0 44 12T33 43Q33 63 45 76T78 89Q99 89 110 75T122 36Q122 0 107 -33T67 -91Z" />
<glyph unicode="-" glyph-name="hyphen" horiz-adv-x="420" d="M97 240Q71 240 71 260Q71 272 79 282T102 292H331Q357 292 357 271Q357 259 350 250T326 240H97Z" />
<glyph unicode="." glyph-name="period" horiz-adv-x="219" d="M79 -3Q59 -3 46 10T33 43Q33 63 46 76T79 89Q100 89 112 76T125 43Q125 23 113 10T79 -3Z" />
<glyph unicode="/" glyph-name="slash" horiz-adv-x="269" d="M-5 -38Q-14 -56 -28 -56T-51 -44T-52 -17L305 728Q312 745 327 745T351 734T352 705L-5 -38Z" />
<glyph unicode="0" glyph-name="zero" horiz-adv-x="600" d="M289 -8Q182 -8 127 57T71 248Q71 392 105 496T201 657T347 713Q454 713 509 648T564 458Q564 313 530 209T435 48T289 -8ZM292 47Q389 47 444 157T500 476Q501 658 343 658Q247 658 191 548T135 229Q135
47 292 47Z" />
<glyph unicode="1" glyph-name="one" horiz-adv-x="600" d="M121 0Q91 0 91 24Q91 38 100 46T124 54H263L354 628L240 556Q222 545 210 553T196 577T214 604L367 700Q385 711 401 711Q413 711 420 703T424 679L325 54H448Q478 54 478 31Q478 0 445 0H121Z" />
<glyph unicode="2" glyph-name="two" horiz-adv-x="600" d="M94 0Q63 0 63 26Q63 41 84 61L351 311Q410 366 450 423T490 546Q490 598 455 627T355 657Q311 657 267 641T177 590Q159 577 147 584T133 607T146 636Q190 673 246 693T362 713Q450 713 501 668T553
552Q553 496 531 448T471 355T386 268L153 54H477Q507 54 507 32Q507 0 474 0H94Z" />
<glyph unicode="3" glyph-name="three" horiz-adv-x="600" d="M278 -8Q222 -8 163 7T57 63Q41 75 43 91T58 114T88 109Q134 73 180 61T278 48Q326 48 365 67T426 121T449 206Q449 262 411 296T302 331H233Q203 331 203 355Q203 369 212 377T236 385H307Q356 385
396 404T460 457T484 540Q484 593 448 625T351 657Q305 657 258 641T169 592Q153 580 141 586T126 608T140 636Q185 674 242 693T356 713Q415 713 457 691T523 631T546 545Q547 477 506 427T400 358Q455 340 483 299T511 204Q511 141 480 93T396 19T278 -8Z" />
<glyph unicode="4" glyph-name="four" horiz-adv-x="600" d="M382 -6Q351 -6 356 28L377 159H76Q60 159 51 166T42 183Q42 200 62 223L459 692Q474 710 494 710Q508 710 515 701T519 675L446 213H529Q557 213 557 191Q557 159 525 159H438L417 24Q413 -6 382 -6ZM385
213L447 601L117 213H385Z" />
<glyph unicode="5" glyph-name="five" horiz-adv-x="600" d="M290 -8Q237 -8 183 7T81 64Q66 76 68 91T83 114T113 109Q157 72 199 60T290 48Q342 48 384 72T452 138T477 234Q477 299 440 340T337 382Q288 382 249 362T174 304Q167 297 159 292T141 287Q129 287
122 295T116 318L173 676Q178 705 207 705H547Q577 705 577 682Q577 651 544 651H230L186 373Q219 404 262 421T350 438Q400 438 443 417T513 351T540 239Q540 165 506 110T415 23T290 -8Z" />
<glyph unicode="6" glyph-name="six" horiz-adv-x="600" d="M305 -8Q236 -8 186 23T108 112T80 250Q80 344 100 428T160 576T259 676T398 713Q450 713 499 692T582 633Q596 620 592 604T575 582T546 592Q486 657 393 657Q321 657 267 613T179 488T140 296Q164
362 221 399T345 437Q402 437 446 411T515 341T541 240Q541 170 510 114T426 25T305 -8ZM301 47Q355 47 395 72T457 141T479 237Q479 301 437 341T332 382Q279 382 239 357T177 288T154 192Q154 128 196 88T301 47Z" />
<glyph unicode="7" glyph-name="seven" horiz-adv-x="600" d="M132 -6Q113 -6 107 8T114 42L517 650H165Q135 650 135 674Q135 705 168 705H565Q597 705 597 681Q597 670 593 662T581 642L167 16Q153 -6 132 -6Z" />
<glyph unicode="8" glyph-name="eight" horiz-adv-x="600" d="M270 -8Q204 -8 153 12T73 69T44 158Q44 210 65 253T124 326T211 363Q164 379 139 417T113 507Q113 573 146 619T236 689T368 713Q429 713 476 693T551 635T578 548Q578 478 536 426T430 357Q481 343
511 305T542 209Q542 139 507 91T411 17T270 -8ZM324 384Q408 384 462 426T517 543Q517 599 476 629T366 659Q276 659 225 620T174 503Q174 446 214 415T324 384ZM273 45Q369 45 425 87T481 213Q481 272 436 301T316 330Q219 330 162 289T105 165Q105 105 151 75T273
45Z" />
<glyph unicode="9" glyph-name="nine" horiz-adv-x="600" d="M238 -8Q187 -8 137 13T52 72Q39 85 42 101T59 123T89 113Q150 48 243 48Q314 48 368 92T455 217T495 409Q470 342 413 305T290 268Q233 268 189 294T120 364T94 465Q94 535 125 591T209 680T330 713Q433
713 494 644T555 456Q555 362 535 278T476 130T377 29T238 -8ZM303 323Q356 323 396 348T458 417T481 513Q481 577 439 618T334 659Q280 659 240 633T178 564T156 468Q156 404 197 364T303 323Z" />
<glyph unicode=":" glyph-name="colon" horiz-adv-x="219" d="M142 396Q122 396 109 409T96 442Q96 463 109 476T142 489Q163 489 175 476T188 442Q188 422 176 409T142 396ZM79 -3Q59 -3 46 10T33 43Q33 63 46 76T79 89Q100 89 112 76T125 43Q125 23 113 10T79 -3Z" />
<glyph unicode=";" glyph-name="semicolon" horiz-adv-x="219" d="M142 396Q122 396 109 409T96 442Q96 463 109 476T142 489Q163 489 175 476T188 442Q188 422 176 409T142 396ZM67 -91Q54 -104 43 -101T28 -87T37 -62Q65 -32 73 -3Q55 0 44 12T33 43Q33 63 45
76T78 89Q99 89 110 75T122 36Q122 0 107 -33T67 -91Z" />
<glyph unicode="&lt;" glyph-name="less" horiz-adv-x="600" d="M488 48L84 250Q56 263 56 283Q56 308 84 319L557 524Q574 531 584 522T594 498T577 477L127 284L510 93Q526 85 526 71T515 49T488 48Z" />
<glyph unicode="=" glyph-name="equal" horiz-adv-x="600" d="M99 362Q72 362 72 382Q72 412 102 412H545Q573 412 573 391Q573 362 542 362H99ZM68 163Q41 163 41 183Q41 212 71 212H514Q541 212 541 192Q541 163 511 163H68Z" />
<glyph unicode="&gt;" glyph-name="greater" horiz-adv-x="600" d="M57 51Q40 43 30 52T20 76T37 97L487 290L104 481Q88 489 88 503T98 526T125 527L530 324Q557 311 557 291Q557 266 530 255L57 51Z" />
<glyph unicode="?" glyph-name="question" horiz-adv-x="436" d="M192 169Q180 169 175 177T172 198Q177 234 188 265T222 328T290 399Q347 449 370 483T394 562Q394 602 368 629T284 657Q236 657 194 641T115 595Q96 581 83 587T69 610T84 640Q126 676 181 694T289
713Q344 713 381 693T438 640T457 568Q457 511 422 462T327 363Q269 315 247 275T215 195Q212 182 207 176T192 169ZM169 -3Q148 -3 135 10T122 43Q122 63 135 76T169 89Q189 89 201 76T214 43Q214 23 202 10T169 -3Z" />
<glyph unicode="@" glyph-name="at" horiz-adv-x="945" d="M495 -163Q368 -163 274 -110T127 42T75 275Q75 372 106 452T195 591T332 681T507 713Q621 713 707 667T842 538T891 345Q891 258 868 194T802 95T702 59Q654 59 625 83T591 150Q564 106 523 83T439 59Q363
59 321 106T278 238Q278 312 306 369T384 460T495 494Q544 494 577 473T625 412L634 463Q639 490 665 490Q693 490 687 460L646 218Q643 205 642 194T641 174Q641 104 706 104Q747 104 778 134T826 218T843 345Q843 441 801 513T682 625T506 666Q393 666 308 617T175
480T127 275Q127 153 172 66T299 -68T495 -115Q572 -115 634 -92T738 -30Q754 -17 767 -21T783 -39T771 -67Q723 -112 653 -137T495 -163ZM444 107Q491 107 528 135T587 213T609 326Q609 445 499 445Q452 445 415 419T356 345T334 239Q334 175 362 141T444 107Z"
/>
<glyph unicode="A" glyph-name="A" horiz-adv-x="722" d="M34 -6Q17 -6 9 6T11 37L399 690Q411 711 436 711Q461 711 468 687L646 39Q653 15 645 5T623 -6Q597 -6 590 24L546 188H168L67 15Q55 -6 34 -6ZM426 629L200 241H531L428 629H426Z" />
<glyph unicode="B" glyph-name="B" horiz-adv-x="671" d="M91 0Q53 0 59 38L160 673Q164 705 198 705H422Q529 705 581 661T633 540Q633 469 594 422T487 356Q538 339 567 301T597 208Q597 105 534 53T352 0H91ZM175 383H389Q473 383 522 422T571 536Q571 653
415 653H218L175 383ZM123 52H354Q535 52 535 209Q535 269 495 300T380 331H167L123 52Z" />
<glyph unicode="C" glyph-name="C" horiz-adv-x="670" d="M378 -8Q289 -8 222 25T118 128T80 306Q80 393 105 467T176 596T289 682T437 713Q502 713 557 693T653 635Q668 622 665 606T647 582T618 588Q579 624 534 640T434 656Q345 656 281 611T181 487T146 306Q146
168 209 109T383 49Q433 49 475 64T560 115Q577 128 590 121T605 97T592 69Q545 29 492 11T378 -8Z" />
<glyph unicode="D" glyph-name="D" horiz-adv-x="733" d="M91 0Q73 0 65 10T59 38L160 673Q165 705 198 705H364Q520 705 605 629T690 413Q690 328 667 254T596 122T472 33T293 0H91ZM124 54H295Q385 54 447 82T549 161T607 275T625 413Q625 528 559 589T363 651H219L124
54Z" />
<glyph unicode="E" glyph-name="E" horiz-adv-x="576" d="M91 0Q53 0 59 38L160 673Q165 705 198 705H574Q602 705 602 684Q602 667 593 660T571 652H218L175 384H503Q531 384 531 363Q531 346 522 339T499 331H166L122 53H470Q499 53 499 32Q499 15 490 8T467 0H91Z" />
<glyph unicode="F" glyph-name="F" horiz-adv-x="542" d="M88 -6Q52 -6 58 31L160 673Q165 705 198 705H558Q587 705 587 683Q587 652 555 652H219L176 383H487Q516 383 516 361Q516 330 484 330H168L120 26Q114 -6 88 -6Z" />
<glyph unicode="G" glyph-name="G" horiz-adv-x="722" d="M387 -8Q241 -8 160 69T79 292Q79 418 123 513T247 660T439 713Q506 713 563 694T658 637Q673 623 671 606T654 582T623 589Q587 624 540 640T435 656Q345 656 280 612T180 486T145 293Q145 169 208 109T393
48Q440 48 480 56T555 76L592 309H433Q403 309 403 332Q403 346 412 353T435 361H622Q638 361 645 353T650 328L608 57Q604 33 585 25Q548 10 495 1T387 -8Z" />
<glyph unicode="H" glyph-name="H" horiz-adv-x="756" d="M84 -6Q52 -6 58 31L161 680Q166 711 195 711Q228 711 222 674L176 385H625L672 680Q677 711 706 711Q739 711 733 674L630 25Q625 -6 596 -6Q563 -6 569 31L616 330H168L119 25Q114 -6 84 -6Z" />
<glyph unicode="I" glyph-name="I" horiz-adv-x="245" d="M85 -6Q52 -6 58 31L161 680Q166 711 195 711Q228 711 222 674L119 25Q114 -6 85 -6Z" />
<glyph unicode="J" glyph-name="J" horiz-adv-x="310" d="M-15 -6Q-48 -9 -48 20Q-48 46 -20 48L13 51Q128 60 148 192L226 682Q231 711 261 711Q293 711 287 676L208 181Q195 97 149 51T16 -3L-15 -6Z" />
<glyph unicode="K" glyph-name="K" horiz-adv-x="607" d="M85 -6Q71 -6 64 3T59 30L162 681Q167 711 196 711Q211 711 218 702T222 675L176 381H178L574 697Q591 711 607 711Q626 711 632 695T623 667L234 355L543 38Q557 24 550 9T523 -6Q513 -6 506 -2T489 12L171
336H169L119 24Q115 -6 85 -6Z" />
<glyph unicode="L" glyph-name="L" horiz-adv-x="535" d="M88 0Q54 0 59 35L162 683Q166 711 196 711Q228 711 223 677L125 55H464Q493 55 493 33Q493 16 484 8T461 0H88Z" />
<glyph unicode="M" glyph-name="M" horiz-adv-x="850" d="M87 -1Q56 -1 61 31L164 683Q169 711 195 711Q216 711 225 687L412 173L767 692Q781 711 801 711Q830 711 825 678L722 26Q717 -1 692 -1Q678 -1 671 7T666 31L753 585L434 120Q423 103 406 103Q385 103
377 125L206 592L116 26Q112 -1 87 -1Z" />
<glyph unicode="N" glyph-name="N" horiz-adv-x="735" d="M82 -6Q53 -6 58 28L162 684Q166 711 192 711Q204 711 210 706T223 691L563 97L656 683Q660 711 690 711Q717 711 712 677L608 22Q604 -6 581 -6Q569 -6 562 -1T548 15L207 609L114 22Q110 -6 82 -6Z" />
<glyph unicode="O" glyph-name="O" horiz-adv-x="759" d="M362 -8Q233 -8 156 69T79 291Q79 381 102 457T169 591T280 681T431 713Q561 713 638 636T715 414Q715 325 692 248T624 114T514 24T362 -8ZM364 48Q457 48 520 96T616 227T649 413Q649 537 591 597T428
657Q337 657 274 609T178 479T145 292Q145 168 203 108T364 48Z" />
<glyph unicode="P" glyph-name="P" horiz-adv-x="624" d="M86 -6Q53 -6 58 29L161 675Q165 705 195 705H411Q515 705 573 659T631 518Q631 414 565 352T374 289H161L119 24Q114 -6 86 -6ZM170 343H378Q471 343 519 387T568 515Q568 586 528 619T407 652H219L170 343Z" />
<glyph unicode="Q" glyph-name="Q" horiz-adv-x="759" d="M564 -150Q574 -170 564 -182T538 -193T512 -172L466 -71Q438 -8 352 -8V-8Q227 -5 153 72T79 291Q79 381 102 457T169 591T280 681T431 713Q561 713 638 636T715 414Q715 314 686 230T601 87T463 5Q482
-3 497 -19T525 -64L564 -150ZM364 48Q457 48 520 96T616 227T649 413Q649 537 591 597T428 657Q337 657 274 609T178 479T145 292Q145 168 203 108T364 48Z" />
<glyph unicode="R" glyph-name="R" horiz-adv-x="661" d="M84 -6Q53 -6 59 30L161 674Q166 705 196 705H406Q519 705 575 655T631 518Q631 427 577 375T435 312Q458 301 475 280T504 226L576 36Q592 -6 554 -6Q532 -6 521 20L445 220Q427 267 399 286T316 305H163L119
24Q114 -6 84 -6ZM172 357H386Q472 357 520 398T568 515Q568 583 528 617T402 652H219L172 357Z" />
<glyph unicode="S" glyph-name="S" horiz-adv-x="607" d="M296 -8Q227 -8 162 8T47 64Q31 76 33 92T48 115T79 111Q128 74 182 61T300 48Q386 48 439 84T492 185Q492 229 461 260T350 309L249 334Q180 350 139 390T97 508Q97 570 131 616T224 687T354 713Q414
713 475 695T580 636Q595 624 593 608T578 584T546 591Q505 627 455 642T352 657Q297 657 254 639T186 588T160 510Q160 453 187 427T268 388L370 364Q466 341 510 298T555 192Q555 127 521 83T427 15T296 -8Z" />
<glyph unicode="T" glyph-name="T" horiz-adv-x="594" d="M258 -6Q227 -6 233 30L331 650H96Q66 650 66 674Q66 689 75 697T99 705H636Q666 705 666 683Q666 650 633 650H392L293 24Q289 -6 258 -6Z" />
<glyph unicode="U" glyph-name="U" horiz-adv-x="724" d="M333 -8Q200 -8 136 67T94 292L156 682Q161 711 191 711Q223 711 217 676L155 286Q136 166 182 107T335 48Q440 48 500 101T580 272L645 682Q650 711 680 711Q712 711 705 676L641 265Q619 129 544 61T333 -8Z" />
<glyph unicode="V" glyph-name="V" horiz-adv-x="677" d="M299 -6Q271 -6 262 25L87 667Q83 684 91 694T115 705Q138 705 146 677L309 78L664 682Q677 705 701 705Q719 705 725 693T723 664L340 19Q325 -6 299 -6Z" />
<glyph unicode="W" glyph-name="W" horiz-adv-x="1096" d="M268 -6Q241 -6 235 27L113 673Q110 691 118 701T142 711Q167 711 172 682L281 92L581 685Q594 711 618 711Q641 711 648 677L758 86L1061 688Q1072 711 1094 711Q1113 711 1119 699T1117 669L788 20Q774
-6 748 -6Q721 -6 715 27L606 611L307 20Q293 -6 268 -6Z" />
<glyph unicode="X" glyph-name="X" horiz-adv-x="640" d="M32 -6Q15 -6 8 8T15 40L304 364L129 665Q118 684 125 697T151 711Q163 711 169 706T183 688L345 406L597 693Q613 711 632 711Q648 711 656 697T649 665L377 358L562 40Q573 21 566 8T539 -6Q527 -6 521
-1T507 17L335 316L66 12Q50 -6 32 -6Z" />
<glyph unicode="Y" glyph-name="Y" horiz-adv-x="586" d="M254 -6Q223 -6 228 29L276 337L89 665Q78 684 85 697T110 711Q122 711 129 706T143 688L312 392L581 693Q597 711 615 711Q632 711 639 697T631 665L338 338L288 24Q284 -6 254 -6Z" />
<glyph unicode="Z" glyph-name="Z" horiz-adv-x="582" d="M42 0Q21 0 16 19T29 61L529 650H140Q111 650 111 673Q111 690 121 697T144 705H585Q611 705 615 687T599 645L99 55H503Q532 55 532 33Q532 16 523 8T500 0H42Z" />
<glyph unicode="[" glyph-name="bracketleft" horiz-adv-x="298" d="M84 -180Q67 -180 57 -168T50 -140L180 679Q182 690 190 697T210 705H334Q367 705 367 681Q367 655 337 655H237L113 -130H211Q226 -130 230 -136T235 -152Q235 -164 228 -172T205 -180H84Z" />
<glyph unicode="\" glyph-name="backslash" horiz-adv-x="269" d="M186 -36L63 717Q61 733 72 742T97 748T114 725L238 -29Q241 -47 229 -55T204 -59T186 -36Z" />
<glyph unicode="]" glyph-name="bracketright" horiz-adv-x="298" d="M-30 -180Q-64 -180 -64 -156Q-64 -130 -33 -130H67L191 655H93Q78 655 73 661T68 677Q68 689 75 697T99 705H220Q236 705 246 693T253 665L124 -154Q122 -165 114 -172T93 -180H-30Z" />
<glyph unicode="^" glyph-name="asciicircum" horiz-adv-x="600" d="M69 134Q53 134 49 145T54 173L327 612Q334 625 342 629T362 634Q384 634 392 606L526 169Q531 152 525 143T504 134Q492 134 487 140T478 157L354 564L99 152Q88 134 69 134Z" />
<glyph unicode="_" glyph-name="underscore" horiz-adv-x="500" d="M-3 -43Q-28 -43 -28 -24Q-28 -12 -20 -6T-2 0H420Q445 0 445 -19Q445 -30 437 -36T418 -43H-3Z" />
<glyph unicode="`" glyph-name="grave" horiz-adv-x="500" d="M269 556L156 718Q143 736 152 748T178 761T206 742L305 577Q312 563 307 554T290 544T269 556Z" />
<glyph unicode="a" glyph-name="a" horiz-adv-x="522" d="M202 -8Q161 -8 125 10T67 60T44 136Q44 212 109 245T319 278H390L395 313Q406 376 380 409T288 442Q249 442 215 434T148 406Q130 395 118 402T105 425T126 451Q162 473 205 483T293 494Q387 494 427
441T452 296L409 24Q404 -6 375 -6Q346 -6 351 29L359 78Q333 34 290 13T202 -8ZM213 41Q271 41 317 80T376 191L382 233H333Q248 233 199 225T130 195T109 139Q109 90 140 66T213 41Z" />
<glyph unicode="b" glyph-name="b" horiz-adv-x="575" d="M285 -8Q229 -8 184 18T119 101L107 24Q102 -6 73 -6Q41 -6 48 30L151 681Q155 711 186 711Q217 711 211 675L168 405Q195 446 239 470T339 494Q424 494 476 438T528 286Q528 207 500 140T418 33T285 -8ZM281
43Q341 43 382 76T444 164T466 285Q466 362 428 402T323 442Q264 442 223 409T160 321T139 200Q139 123 176 83T281 43Z" />
<glyph unicode="c" glyph-name="c" horiz-adv-x="459" d="M253 -8Q149 -8 99 51T49 205Q49 258 63 309T108 402T187 469T301 494Q339 494 375 483T437 453Q456 439 456 423T446 399T419 403Q369 441 301 441Q250 441 214 421T155 367T122 290T111 205Q111 132
145 88T259 44Q284 44 313 52T368 80Q383 90 394 83T407 61T394 36Q366 15 328 4T253 -8Z" />
<glyph unicode="d" glyph-name="d" horiz-adv-x="575" d="M236 -8Q151 -8 100 47T48 199Q48 278 76 345T158 453T290 494Q347 494 391 467T456 384L504 682Q508 711 539 711Q569 711 563 676L460 24Q456 -6 425 -6Q395 -6 401 30L410 84Q382 41 338 17T236 -8ZM252
43Q312 43 353 76T415 164T437 285Q437 362 399 402T294 442Q234 442 193 409T131 321T110 200Q110 123 147 83T252 43Z" />
<glyph unicode="e" glyph-name="e" horiz-adv-x="527" d="M265 -8Q164 -8 106 48T48 203Q48 281 78 347T165 453T302 494Q376 494 419 460T477 371T485 257Q483 241 477 236T458 230H109Q99 146 141 95T266 43Q306 43 340 52T406 85Q425 98 436 92T448 70T432
43Q399 18 354 5T265 -8ZM301 445Q244 445 206 420T146 356T116 275H434Q439 322 427 360T385 422T301 445Z" />
<glyph unicode="f" glyph-name="f" horiz-adv-x="319" d="M95 -6Q64 -6 70 30L135 436H67Q42 436 42 455Q42 485 74 485H142L149 528Q161 608 210 654T344 705L374 707Q392 708 398 696T399 671T379 657L348 655Q287 651 253 619T209 525L203 485H319Q344 485
344 467Q344 436 312 436H196L130 24Q125 -6 95 -6Z" />
<glyph unicode="g" glyph-name="g" horiz-adv-x="578" d="M244 -188Q187 -188 138 -172T49 -127Q35 -118 37 -104T52 -81T79 -83Q116 -109 153 -123T239 -137Q305 -137 346 -103T400 4L416 106Q389 62 344 37T240 11Q153 11 101 65T48 209Q48 283 76 348T158 453T292
494Q349 494 394 468T459 385L471 462Q475 492 506 492Q536 492 530 456L459 7Q428 -188 244 -188ZM253 63Q314 63 355 95T418 181T440 295Q440 365 402 403T296 442Q235 442 194 410T131 325T110 211Q110 140 147 102T253 63Z" />
<glyph unicode="h" glyph-name="h" horiz-adv-x="560" d="M72 -6Q41 -6 47 30L150 681Q154 711 185 711Q216 711 210 676L166 401Q194 445 238 469T343 494Q424 494 465 445T490 295L448 24Q443 -6 412 -6Q381 -6 387 30L429 295Q452 441 331 441Q251 441 205
393T145 264L108 24Q103 -6 72 -6Z" />
<glyph unicode="i" glyph-name="i" horiz-adv-x="222" d="M171 610Q131 610 133 646Q135 693 184 693Q224 693 222 657Q220 610 171 610ZM72 -6Q41 -6 47 30L115 461Q120 492 150 492Q181 492 175 456L107 24Q102 -6 72 -6Z" />
<glyph unicode="j" glyph-name="j" horiz-adv-x="225" d="M171 610Q132 610 133 646Q135 693 184 693Q224 693 222 657Q220 610 171 610ZM-92 -191Q-110 -191 -116 -179T-118 -154T-95 -140Q-39 -140 -4 -111T42 -19L118 461Q123 492 153 492Q184 492 178 456L103
-18Q89 -106 40 -148T-92 -191Z" />
<glyph unicode="k" glyph-name="k" horiz-adv-x="484" d="M72 -6Q41 -6 47 29L150 682Q154 711 185 711Q216 711 210 675L145 265H147L407 475Q417 484 424 488T443 492Q460 492 465 477T453 446L208 246L413 39Q427 24 421 9T397 -6Q385 -6 377 -1T357 17L142
234H140L107 23Q102 -6 72 -6Z" />
<glyph unicode="l" glyph-name="l" horiz-adv-x="285" d="M182 -8Q115 -8 84 32T66 151L150 681Q154 711 185 711Q216 711 210 675L127 151Q118 94 135 70T196 45Q211 45 219 47T232 49Q238 49 241 45T245 29Q245 15 238 7T217 -5Q210 -7 200 -7T182 -8Z" />
<glyph unicode="m" glyph-name="m" horiz-adv-x="847" d="M74 -6Q43 -6 49 29L117 462Q122 492 152 492Q181 492 176 456L167 399Q223 494 327 494Q381 494 416 467T462 389Q487 438 532 466T637 494Q713 494 751 445T774 294L732 23Q727 -6 697 -6Q666 -6 671
29L713 299Q736 441 624 441Q558 441 515 394T458 264L420 23Q416 -6 385 -6Q353 -6 360 29L403 299Q425 441 314 441Q248 441 204 394T147 264L110 23Q105 -6 74 -6Z" />
<glyph unicode="n" glyph-name="n" horiz-adv-x="560" d="M73 -6Q58 -6 52 4T48 31L116 461Q120 492 151 492Q180 492 174 457L165 399Q193 444 238 469T343 494Q424 494 465 445T490 295L447 23Q442 -6 412 -6Q381 -6 387 30L429 295Q452 441 331 441Q251 441
205 393T145 264L108 24Q103 -6 73 -6Z" />
<glyph unicode="o" glyph-name="o" horiz-adv-x="547" d="M250 -8Q156 -8 102 48T48 203Q48 282 77 348T163 454T297 494Q390 494 444 438T499 283Q499 203 469 137T384 32T250 -8ZM252 43Q312 43 353 76T415 164T437 285Q437 362 399 402T294 442Q235 442 194
409T131 321T110 200Q110 123 147 83T252 43Z" />
<glyph unicode="p" glyph-name="p" horiz-adv-x="575" d="M43 -186Q12 -186 18 -151L115 461Q120 492 150 492Q181 492 174 456L166 402Q194 445 238 469T339 494Q424 494 476 438T528 286Q528 207 500 140T418 33T285 -8Q229 -8 184 18T119 101L78 -157Q73 -186
43 -186ZM281 43Q341 43 382 76T444 164T466 285Q466 362 428 402T323 442Q264 442 223 409T160 321T139 200Q139 123 176 83T281 43Z" />
<glyph unicode="q" glyph-name="q" horiz-adv-x="575" d="M396 -186Q367 -186 372 -151L408 81Q380 39 337 16T236 -8Q151 -8 100 47T48 199Q48 278 76 345T158 453T291 494Q347 494 392 467T457 382L469 461Q474 492 504 492Q535 492 529 456L432 -156Q427 -186
396 -186ZM252 43Q312 43 353 76T415 164T437 285Q437 362 399 402T294 442Q234 442 193 409T131 321T110 200Q110 123 147 83T252 43Z" />
<glyph unicode="r" glyph-name="r" horiz-adv-x="342" d="M73 -6Q41 -6 48 29L116 462Q120 492 150 492Q164 492 171 483T175 456L167 405Q193 448 238 471T335 495Q354 495 361 490T369 473Q369 458 362 451T336 441L320 440Q234 432 197 389T148 274L108 23Q103
-6 73 -6Z" />
<glyph unicode="s" glyph-name="s" horiz-adv-x="478" d="M221 -8Q173 -8 130 3T56 37Q40 47 40 62T53 84T83 81Q114 60 149 51T224 42Q281 42 314 65T347 131Q347 159 329 177T277 204L181 228Q134 240 107 271T79 347Q79 411 130 452T268 494Q311 494 351 481T417
446Q433 433 432 419T420 398T391 404Q340 443 266 443Q208 443 173 418T138 349Q138 323 154 304T204 276L300 251Q349 239 378 210T407 136Q407 68 356 30T221 -8Z" />
<glyph unicode="t" glyph-name="t" horiz-adv-x="335" d="M229 -8Q150 -8 113 37T88 160L132 436H62Q33 436 33 457Q33 485 66 485H139L160 612Q164 641 194 641Q226 641 220 606L200 485H331Q360 485 360 465Q360 436 328 436H192L150 168Q140 103 163 74T237
45Q259 45 271 49T292 54Q308 54 308 34Q308 19 304 12T289 1Q278 -3 261 -5T229 -8Z" />
<glyph unicode="u" glyph-name="u" horiz-adv-x="553" d="M215 -8Q136 -8 95 40T70 191L113 462Q118 492 147 492Q162 492 169 483T174 457L132 190Q108 44 227 44Q303 44 349 92T408 222L445 462Q450 492 480 492Q511 492 506 459L437 23Q433 -6 404 -6Q373 -6
378 28L387 84Q360 40 316 16T215 -8Z" />
<glyph unicode="v" glyph-name="v" horiz-adv-x="509" d="M217 -6Q187 -6 178 27L65 446Q59 466 67 479T94 492Q117 492 124 463L224 67L455 469Q467 492 488 492Q507 492 513 479T509 447L259 20Q251 7 242 1T217 -6Z" />
<glyph unicode="w" glyph-name="w" horiz-adv-x="835" d="M200 -6Q187 -6 177 2T163 27L79 444Q75 465 82 478T107 492Q121 492 127 485T136 462L209 72L414 467Q427 492 453 492Q466 492 475 485T488 461L564 69L768 469Q780 492 801 492Q820 492 825 480T822
450L599 20Q585 -6 558 -6Q527 -6 520 27L444 406L242 21Q229 -6 200 -6Z" />
<glyph unicode="x" glyph-name="x" horiz-adv-x="515" d="M35 -6Q16 -6 11 8T16 34L223 251L98 445Q85 466 94 479T117 492Q137 492 149 471L265 290L437 475Q445 483 452 487T470 492Q490 492 495 478T489 451L297 247L430 40Q444 19 435 7T411 -6Q391 -6 378
14L255 207L69 10Q60 2 53 -2T35 -6Z" />
<glyph unicode="y" glyph-name="y" horiz-adv-x="509" d="M117 -186Q98 -186 93 -173T99 -142L183 2L64 447Q59 467 67 479T93 492Q106 492 112 485T123 463L223 68L454 469Q467 492 488 492Q506 492 513 479T509 447L150 -163Q144 -175 137 -180T117 -186Z" />
<glyph unicode="z" glyph-name="z" horiz-adv-x="459" d="M48 0Q29 0 23 14T31 45L373 437H112Q86 437 86 457Q86 485 115 485H425Q446 485 451 470T440 436L101 49H373Q399 49 399 29Q399 0 370 0H48Z" />
<glyph unicode="{" glyph-name="braceleft" horiz-adv-x="335" d="M193 -180Q135 -180 112 -156T96 -87L134 156Q141 203 125 219T70 237Q49 238 49 259Q49 271 56 279T75 289Q118 290 139 307T168 370L206 612Q222 705 310 705H375Q404 705 404 681Q404 669 396
662T375 655H317Q274 655 267 609L228 364Q221 317 196 293T143 263Q168 257 185 233T195 161L157 -85Q150 -130 193 -130H243Q255 -130 263 -136T272 -153Q272 -180 243 -180H193Z" />
<glyph unicode="|" glyph-name="bar" horiz-adv-x="254" d="M59 -186Q29 -186 34 -150L166 681Q170 711 201 711Q231 711 226 675L94 -156Q90 -186 59 -186Z" />
<glyph unicode="}" glyph-name="braceright" horiz-adv-x="335" d="M-34 -180Q-63 -180 -63 -156Q-63 -143 -55 -137T-34 -130H23Q67 -130 74 -84L113 161Q120 208 145 232T198 262Q173 268 156 292T146 364L183 610Q191 655 148 655H98Q86 655 78 661T69 678Q69
705 98 705H147Q205 705 228 681T245 612L207 369Q200 322 216 306T271 288Q292 287 292 266Q292 254 285 246T266 236Q223 236 202 219T173 155L134 -87Q119 -180 30 -180H-34Z" />
<glyph unicode="~" glyph-name="asciitilde" horiz-adv-x="600" d="M421 221Q386 221 355 235T295 265Q268 281 244 292T196 304Q164 304 144 289T108 252Q99 239 86 240T66 251T68 277Q93 316 122 335T193 354Q228 354 261 339T322 308Q349 292 372 281T418 270Q450
270 470 285T506 323Q515 335 528 334T548 323T545 297Q497 221 421 221Z" />
<glyph unicode="&#xa0;" glyph-name="uni00A0" horiz-adv-x="252" />
<glyph unicode="&#xa1;" glyph-name="exclamdown" horiz-adv-x="219" d="M142 396Q122 396 109 409T96 442Q96 463 109 476T142 489Q163 489 175 476T188 442Q188 422 176 409T142 396ZM45 -186Q27 -186 18 -176T13 -144L99 299Q100 307 106 313T120 319Q140 319
139 295L84 -150Q80 -186 45 -186Z" />
<glyph unicode="&#xa2;" glyph-name="cent" horiz-adv-x="600" d="M254 -121Q243 -121 236 -115T231 -91L246 0Q167 16 131 71T94 205Q94 254 107 302T147 390T218 457T322 489L337 586Q341 612 367 612Q378 612 385 604T390 580L376 490Q413 487 445 474T500
441Q514 431 512 417T497 398T468 403Q420 439 353 439Q300 439 263 419T202 364T168 289T157 205Q157 134 192 91T311 47Q336 47 365 55T421 83Q437 94 448 87T461 65T449 41Q415 16 374 5T299 -6L284 -96Q280 -121 254 -121Z" />
<glyph unicode="&#xa3;" glyph-name="sterling" horiz-adv-x="600" d="M42 0Q25 0 17 7T9 25Q9 39 19 46T43 54H124L168 329H87Q72 329 66 335T60 350Q60 361 69 369T90 377H176L198 516Q214 614 268 663T425 713Q477 713 524 696T603 646Q618 632 615 617T598
597T569 604Q539 634 503 646T424 658Q282 658 260 519L237 377H398Q413 377 419 371T425 356Q425 344 416 337T395 329H230L186 54H491Q507 54 514 47T521 30Q521 17 512 9T487 0H42Z" />
<glyph unicode="&#xa4;" glyph-name="currency" horiz-adv-x="600" d="M52 -10Q43 -2 43 9T52 30L112 92Q88 123 75 162T61 245Q61 288 74 327T112 399L52 461Q33 481 52 500Q59 509 71 509T92 499L151 438Q181 464 220 478T302 493Q344 493 381 479T450 440L507
499Q516 508 528 508T548 501Q569 481 548 460L489 400Q514 368 528 329T542 245Q542 201 528 162T489 90L548 30Q567 9 548 -10Q540 -19 528 -19T507 -9L450 51Q420 25 382 11T302 -3Q259 -3 221 11T151 51L91 -9Q82 -18 71 -18T52 -10ZM301 53Q351 53 391 79T456
148T480 245Q480 298 456 342T392 411T301 437Q251 437 210 411T145 342T121 245Q121 192 145 149T210 79T301 53Z" />
<glyph unicode="&#xa5;" glyph-name="yen" horiz-adv-x="600" d="M261 -6Q229 -6 235 29L259 182H88Q61 182 61 204Q61 215 69 222T89 230H267L283 334H112Q85 334 85 355Q85 367 93 374T114 381H259L95 666Q85 685 92 698T118 711Q130 711 136 706T148 689L319
388L588 694Q596 703 603 707T621 711Q637 711 645 697T639 666L387 381H524Q551 381 551 359Q551 348 543 341T522 334H345L329 230H500Q526 230 526 208Q526 197 518 190T498 182H321L295 23Q291 -6 261 -6Z" />
<glyph unicode="&#xa6;" glyph-name="brokenbar" horiz-adv-x="254" d="M147 366Q116 366 122 402L167 681Q172 711 202 711Q233 711 227 675L182 396Q177 366 147 366ZM60 -186Q29 -186 35 -150L80 129Q85 160 115 160Q146 160 140 124L95 -156Q91 -186 60 -186Z" />
<glyph unicode="&#xa7;" glyph-name="section" horiz-adv-x="534" d="M195 -188Q135 -188 89 -175T10 -137Q-6 -125 -5 -111T10 -89T40 -95Q97 -138 193 -138Q266 -138 307 -100T349 -5Q349 38 331 62T269 113L175 171Q119 205 90 244T60 328Q60 368 81 405T140
470Q130 497 130 528Q130 583 159 625T238 690T346 713Q395 713 438 701T516 661Q533 649 531 635T516 614T486 621Q459 641 422 652T347 663Q275 663 234 625T192 529Q192 487 209 462T272 409L362 354Q480 283 480 197Q480 157 459 120T400 55Q410 29 410 -3Q410
-58 381 -100T303 -165T195 -188ZM117 336Q117 302 141 274T210 217L292 166Q321 147 341 130T376 93Q399 115 411 140T423 189Q423 223 399 251T327 308L250 356Q221 374 200 392T164 431Q141 410 129 385T117 336Z" />
<glyph unicode="&#xa8;" glyph-name="dieresis" horiz-adv-x="500" d="M393 612Q358 612 358 643Q358 691 404 691Q438 691 438 659Q438 612 393 612ZM225 612Q190 612 190 643Q190 691 236 691Q271 691 271 659Q271 612 225 612Z" />
<glyph unicode="&#xa9;" glyph-name="copyright" horiz-adv-x="815" d="M425 -8Q348 -8 283 19T168 95T91 210T64 353Q64 430 91 495T167 610T282 686T425 713Q502 713 567 686T682 610T758 496T785 353Q785 276 758 211T682 96T568 19T425 -8ZM425 31Q493 31
551 55T652 124T720 226T744 353Q744 421 720 479T653 581T551 649T425 674Q357 674 299 650T197 582T129 480T105 353Q105 285 129 227T196 124T298 56T425 31ZM436 137Q341 137 287 197T232 356Q232 454 286 511T436 568Q472 568 506 556T568 522Q579 512 578
500T565 482T539 486Q513 504 487 512T437 520Q367 520 328 477T288 355Q288 277 327 232T437 186Q462 186 488 193T540 221Q555 232 565 226T578 206T568 184Q541 162 506 150T436 137Z" />
<glyph unicode="&#xaa;" glyph-name="ordfeminine" horiz-adv-x="321" d="M170 412Q128 412 100 437T71 501Q71 545 111 565T240 586H291L294 604Q300 641 279 658T221 676Q180 676 140 654Q127 648 118 654T110 671T125 689Q145 700 170 706T224 713Q281 713
313 681T337 592L312 433Q308 413 287 413Q265 413 268 436L274 471H272Q255 443 229 428T170 412ZM177 448Q213 448 245 473T283 535L286 553H247Q175 553 147 541T118 503Q118 478 134 463T177 448Z" />
<glyph unicode="&#xab;" glyph-name="guillemotleft" horiz-adv-x="417" d="M155 93Q144 89 134 93T119 109L63 244Q60 253 60 264T69 286L176 429Q190 447 210 438Q221 433 222 421T213 394L121 263L168 129Q178 101 155 93ZM324 93Q313 89 303 93T288 109L232
244Q229 253 229 264T238 286L345 429Q359 447 379 438Q390 433 391 421T382 394L290 263L337 129Q347 101 324 93Z" />
<glyph unicode="&#xac;" glyph-name="logicalnot" horiz-adv-x="600" d="M502 147Q476 147 482 179L511 364H100Q73 364 73 385Q73 414 103 414H531Q548 414 557 403T564 374L532 171Q528 147 502 147Z" />
<glyph unicode="&#xad;" glyph-name="uni00AD" horiz-adv-x="420" d="M97 240Q71 240 71 260Q71 272 79 282T102 292H331Q357 292 357 271Q357 259 350 250T326 240H97Z" />
<glyph unicode="&#xae;" glyph-name="registered" horiz-adv-x="815" d="M425 -8Q348 -8 283 19T168 95T91 210T64 353Q64 430 91 495T167 610T282 686T425 713Q502 713 567 686T682 610T758 496T785 353Q785 276 758 211T682 96T568 19T425 -8ZM425 31Q493 31
551 55T652 124T720 226T744 353Q744 421 720 479T653 581T551 649T425 674Q357 674 299 650T197 582T129 480T105 353Q105 285 129 227T196 124T298 56T425 31ZM313 136Q285 136 285 164V531Q285 563 318 563H452Q519 563 554 532T590 442Q590 347 496 328Q527
317 543 276L584 172Q590 156 583 146T561 136Q542 136 535 157L488 274Q478 300 458 309T408 319H339V164Q339 136 313 136ZM339 364H445Q537 364 537 441Q537 518 445 518H339V364Z" />
<glyph unicode="&#xaf;" glyph-name="overscore" horiz-adv-x="500" d="M190 629Q164 629 164 649Q164 675 192 675H440Q466 675 466 656Q466 629 438 629H190Z" />
<glyph unicode="&#xb0;" glyph-name="degree" horiz-adv-x="367" d="M235 421Q194 421 162 440T110 491T90 565Q90 606 109 639T161 691T235 710Q276 710 308 691T360 640T379 565Q379 524 360 491T309 440T235 421ZM235 468Q277 468 303 495T329 565Q329 608
303 635T235 663Q194 663 168 636T141 565Q141 522 167 495T235 468Z" />
<glyph unicode="&#xb1;" glyph-name="plusminus" horiz-adv-x="600" d="M282 116Q254 116 260 148L284 300H90Q63 300 63 321Q63 350 93 350H292L316 508Q320 535 346 535Q373 535 368 503L344 350H536Q564 350 564 330Q564 300 534 300H335L311 143Q307 116 282
116ZM43 0Q15 0 15 21Q15 50 46 50H489Q516 50 516 30Q516 0 486 0H43Z" />
<glyph unicode="&#xb2;" glyph-name="uni00B2" horiz-adv-x="380" d="M89 282Q63 282 63 303Q63 311 67 317T78 330L235 473Q270 505 293 536T316 602Q317 630 298 645T244 661Q218 661 193 653T144 630Q129 620 119 627T109 647T124 670Q183 709 254 709Q310
709 342 681T373 608Q372 559 343 521T268 442L144 330H321Q346 330 346 309Q346 282 318 282H89Z" />
<glyph unicode="&#xb3;" glyph-name="uni00B3" horiz-adv-x="380" d="M203 279Q168 279 132 288T68 318Q55 328 56 341T68 361T95 356Q119 339 146 333T203 326Q241 326 268 347T297 408Q298 438 277 455T216 472H163Q137 472 137 493Q137 520 166 520H221Q263
520 292 541T321 600Q322 628 302 644T247 661Q217 661 192 653T143 628Q129 619 119 625T109 645T123 667Q149 686 183 697T255 709Q312 709 344 680T376 608Q376 568 351 539T286 498Q318 486 334 462T351 405Q350 368 330 340T277 295T203 279Z" />
<glyph unicode="&#xb4;" glyph-name="acute" horiz-adv-x="500" d="M324 554Q315 542 305 543T289 554T292 576L405 744Q418 764 434 762T457 746T452 716L324 554Z" />
<glyph unicode="&#xb5;" glyph-name="uni00B5" horiz-adv-x="600" d="M66 -186Q35 -186 41 -151L138 462Q143 492 173 492Q187 492 194 483T199 456L157 190Q133 44 252 44Q329 44 374 92T433 222L471 462Q475 492 505 492Q536 492 530 456L462 23Q458 -6 429
-6Q415 -6 408 2T403 25L413 86Q388 41 346 17T249 -8Q163 -8 128 50L100 -156Q96 -186 66 -186Z" />
<glyph unicode="&#xb6;" glyph-name="paragraph" horiz-adv-x="572" d="M200 -186Q174 -186 178 -155L253 323Q202 323 165 345T109 404T89 488Q89 552 117 601T194 677T308 705H517Q554 705 548 669L416 -160Q412 -186 385 -186Q359 -186 364 -155L492 655H359L230
-160Q226 -186 200 -186Z" />
<glyph unicode="&#xb7;" glyph-name="middot" horiz-adv-x="219" d="M114 219Q94 219 81 232T68 266Q68 286 81 299T114 312Q135 312 147 299T160 266Q160 245 148 232T114 219Z" />
<glyph unicode="&#xb8;" glyph-name="cedilla" horiz-adv-x="500" d="M192 -191Q154 -191 126 -180Q112 -175 111 -163T117 -143T139 -140Q162 -150 197 -150Q224 -150 242 -139T261 -108Q261 -80 226 -80Q207 -80 188 -85Q172 -89 166 -84Q160 -77 165 -63L191
20H236L214 -46Q226 -44 236 -44Q268 -44 288 -60T308 -105Q308 -144 275 -167T192 -191Z" />
<glyph unicode="&#xb9;" glyph-name="uni00B9" horiz-adv-x="380" d="M128 282Q103 282 103 303Q103 330 131 330H202L250 636L190 600Q172 590 161 597T149 619T167 644L256 697Q264 701 271 704T289 707Q304 707 307 698T309 677L254 330H308Q333 330 333 310Q333
298 326 290T305 282H128Z" />
<glyph unicode="&#xba;" glyph-name="ordmasculine" horiz-adv-x="332" d="M210 412Q151 412 114 450T76 550Q76 601 96 637T149 693T224 713Q283 713 320 676T358 575Q358 525 338 489T285 432T210 412ZM211 450Q256 450 283 482T311 576Q311 624 287 649T223
675Q178 675 151 643T123 549Q123 502 147 476T211 450Z" />
<glyph unicode="&#xbb;" glyph-name="guillemotright" horiz-adv-x="417" d="M44 93Q33 98 33 110T41 136L133 268L87 402Q77 430 99 438Q110 441 120 437T135 422L191 287Q194 278 194 267T185 245L78 101Q64 83 44 93ZM213 93Q202 98 202 110T210 136L302 268L256
402Q246 430 268 438Q279 441 289 437T304 422L360 287Q363 278 363 267T354 245L247 101Q233 83 213 93Z" />
<glyph unicode="&#xbc;" glyph-name="onequarter" horiz-adv-x="885" d="M128 282Q103 282 103 303Q103 330 131 330H202L250 636L190 600Q172 590 161 597T149 619T167 644L256 697Q264 701 271 704T289 707Q304 707 307 698T309 677L254 330H308Q333 330 333
310Q333 298 326 290T305 282H128ZM247 -4Q236 -20 223 -19T205 -6T210 21L716 710Q726 725 739 724T758 711T753 684L247 -4ZM728 -3Q702 -3 706 24L716 89H553Q540 89 532 94T523 112Q523 119 526 125T536 139L761 407Q768 415 775 420T795 426Q821 426 817 397L776
136H813Q837 136 837 116Q837 105 830 97T810 89H768L758 21Q754 -3 728 -3ZM724 136L755 334L589 136H724Z" />
<glyph unicode="&#xbd;" glyph-name="onehalf" horiz-adv-x="927" d="M128 282Q103 282 103 303Q103 330 131 330H202L250 636L190 600Q172 590 161 597T149 619T167 644L256 697Q264 701 271 704T289 707Q304 707 307 698T309 677L254 330H308Q333 330 333 310Q333
298 326 290T305 282H128ZM247 -4Q236 -20 223 -19T205 -6T210 21L716 710Q726 725 739 724T758 711T753 684L247 -4ZM591 0Q565 0 565 21Q565 29 569 35T580 48L737 191Q772 223 795 254T818 320Q819 348 800 363T746 379Q720 379 695 371T646 348Q631 338 621
345T611 365T626 388Q685 427 756 427Q812 427 844 399T875 326Q874 277 845 239T770 160L646 48H823Q848 48 848 27Q848 0 820 0H591Z" />
<glyph unicode="&#xbe;" glyph-name="threequarters" horiz-adv-x="885" d="M203 279Q168 279 132 288T68 318Q55 328 56 341T68 361T95 356Q119 339 146 333T203 326Q241 326 268 347T297 408Q298 438 277 455T216 472H163Q137 472 137 493Q137 520 166 520H221Q263
520 292 541T321 600Q322 628 302 644T247 661Q217 661 192 653T143 628Q129 619 119 625T109 645T123 667Q149 686 183 697T255 709Q312 709 344 680T376 608Q376 568 351 539T286 498Q318 486 334 462T351 405Q350 368 330 340T277 295T203 279ZM247 -4Q236 -20
223 -19T205 -6T210 21L716 710Q726 725 739 724T758 711T753 684L247 -4ZM728 -3Q702 -3 706 24L716 89H553Q540 89 532 94T523 112Q523 119 526 125T536 139L761 407Q768 415 775 420T795 426Q821 426 817 397L776 136H813Q837 136 837 116Q837 105 830 97T810
89H768L758 21Q754 -3 728 -3ZM724 136L755 334L589 136H724Z" />
<glyph unicode="&#xbf;" glyph-name="questiondown" horiz-adv-x="436" d="M266 396Q245 396 232 409T219 442Q219 463 232 476T266 489Q286 489 298 476T311 442Q311 422 299 409T266 396ZM146 -188Q96 -188 59 -170T2 -119T-18 -48Q-19 6 14 49T99 133Q155 178
182 214T219 297Q225 319 243 319Q266 319 261 294Q255 254 243 224T206 165T141 102Q98 66 72 34T45 -41Q45 -80 72 -106T151 -132Q206 -132 249 -118T329 -77Q349 -64 361 -71T374 -95T358 -123Q273 -188 146 -188Z" />
<glyph unicode="&#xc0;" glyph-name="Agrave" horiz-adv-x="722" d="M34 -6Q17 -6 9 6T11 37L399 690Q411 711 436 711Q461 711 468 687L646 39Q653 15 645 5T623 -6Q597 -6 590 24L546 188H168L67 15Q55 -6 34 -6ZM426 629L200 241H531L428 629H426ZM418 770L323
899Q310 916 318 929T344 944T372 928L455 793Q462 782 456 772T439 760T418 770Z" />
<glyph unicode="&#xc1;" glyph-name="Aacute" horiz-adv-x="722" d="M34 -6Q17 -6 9 6T11 37L399 690Q411 711 436 711Q461 711 468 687L646 39Q653 15 645 5T623 -6Q597 -6 590 24L546 188H168L67 15Q55 -6 34 -6ZM426 629L200 241H531L428 629H426ZM476 769Q466
758 455 760T439 771T442 792L548 930Q561 947 577 945T601 929T594 900L476 769Z" />
<glyph unicode="&#xc2;" glyph-name="Acircumflex" horiz-adv-x="722" d="M34 -6Q17 -6 9 6T11 37L399 690Q411 711 436 711Q461 711 468 687L646 39Q653 15 645 5T623 -6Q597 -6 590 24L546 188H168L67 15Q55 -6 34 -6ZM426 629L200 241H531L428 629H426ZM336
766Q326 756 315 757T300 767T304 787L411 918Q432 944 459 944Q473 944 482 937T499 917L578 787Q586 774 580 766T561 757T539 770L454 891L336 766Z" />
<glyph unicode="&#xc3;" glyph-name="Atilde" horiz-adv-x="722" d="M34 -6Q17 -6 9 6T11 37L399 690Q411 711 436 711Q461 711 468 687L646 39Q653 15 645 5T623 -6Q597 -6 590 24L546 188H168L67 15Q55 -6 34 -6ZM426 629L200 241H531L428 629H426ZM263 785Q242
787 248 810Q277 917 364 917Q391 917 414 905T459 877T501 849T541 836Q594 836 615 905Q621 923 639 922Q660 920 654 897Q640 843 610 817T538 790Q510 790 487 802T442 830T400 858T360 871Q308 871 287 802Q281 784 263 785Z" />
<glyph unicode="&#xc4;" glyph-name="Adieresis" horiz-adv-x="722" d="M34 -6Q17 -6 9 6T11 37L399 690Q411 711 436 711Q461 711 468 687L646 39Q653 15 645 5T623 -6Q597 -6 590 24L546 188H168L67 15Q55 -6 34 -6ZM426 629L200 241H531L428 629H426ZM538 810Q503
810 503 842Q503 889 549 889Q584 889 584 857Q584 810 538 810ZM371 810Q336 810 336 842Q336 889 382 889Q416 889 416 857Q416 810 371 810Z" />
<glyph unicode="&#xc5;" glyph-name="Aring" horiz-adv-x="722" d="M34 -6Q17 -6 9 6T11 37L399 690Q411 711 436 711Q461 711 468 687L646 39Q653 15 645 5T623 -6Q597 -6 590 24L546 188H168L67 15Q55 -6 34 -6ZM426 629L200 241H531L428 629H426ZM463 759Q414
759 381 792T348 872Q348 919 381 952T463 985Q512 985 545 952T578 872Q578 825 545 792T463 759ZM463 797Q496 797 517 818T538 872Q538 904 517 925T463 947Q430 947 409 926T388 872Q388 840 409 819T463 797Z" />
<glyph unicode="&#xc6;" glyph-name="AE" horiz-adv-x="976" d="M1 -6Q-19 -6 -24 7T-18 36L477 687Q490 705 513 705H974Q1002 705 1002 684Q1002 667 993 660T970 652H553L567 384H902Q931 384 931 363Q931 346 922 339T899 331H570L584 53H871Q899 53 899 32Q899
0 867 0H560Q532 0 530 29L522 188H166L36 14Q20 -6 1 -6ZM496 628L206 241H519L498 628H496Z" />
<glyph unicode="&#xc7;" glyph-name="Ccedilla" horiz-adv-x="670" d="M378 -8Q289 -8 222 25T118 128T80 306Q80 393 105 467T176 596T289 682T437 713Q502 713 557 693T653 635Q668 622 665 606T647 582T618 588Q579 624 534 640T434 656Q345 656 281 611T181
487T146 306Q146 168 209 109T383 49Q433 49 475 64T560 115Q577 128 590 121T605 97T592 69Q545 29 492 11T378 -8ZM347 -191Q309 -191 281 -180Q267 -175 266 -163T272 -143T294 -140Q317 -150 352 -150Q379 -150 397 -139T416 -108Q416 -80 381 -80Q362 -80
343 -85Q327 -89 321 -84Q315 -77 320 -63L346 20H391L369 -46Q381 -44 391 -44Q423 -44 443 -60T463 -105Q463 -144 430 -167T347 -191Z" />
<glyph unicode="&#xc8;" glyph-name="Egrave" horiz-adv-x="576" d="M91 0Q53 0 59 38L160 673Q165 705 198 705H574Q602 705 602 684Q602 667 593 660T571 652H218L175 384H503Q531 384 531 363Q531 346 522 339T499 331H166L122 53H470Q499 53 499 32Q499 15
490 8T467 0H91ZM378 770L283 899Q270 916 278 929T304 944T332 928L415 793Q422 782 416 772T399 760T378 770Z" />
<glyph unicode="&#xc9;" glyph-name="Eacute" horiz-adv-x="576" d="M91 0Q53 0 59 38L160 673Q165 705 198 705H574Q602 705 602 684Q602 667 593 660T571 652H218L175 384H503Q531 384 531 363Q531 346 522 339T499 331H166L122 53H470Q499 53 499 32Q499 15
490 8T467 0H91ZM436 769Q426 758 415 760T399 771T402 792L508 930Q521 947 537 945T561 929T554 900L436 769Z" />
<glyph unicode="&#xca;" glyph-name="Ecircumflex" horiz-adv-x="576" d="M91 0Q53 0 59 38L160 673Q165 705 198 705H574Q602 705 602 684Q602 667 593 660T571 652H218L175 384H503Q531 384 531 363Q531 346 522 339T499 331H166L122 53H470Q499 53 499 32Q499
15 490 8T467 0H91ZM296 766Q286 756 275 757T260 767T264 787L371 918Q392 944 419 944Q433 944 442 937T459 917L538 787Q546 774 540 766T521 757T499 770L414 891L296 766Z" />
<glyph unicode="&#xcb;" glyph-name="Edieresis" horiz-adv-x="576" d="M91 0Q53 0 59 38L160 673Q165 705 198 705H574Q602 705 602 684Q602 667 593 660T571 652H218L175 384H503Q531 384 531 363Q531 346 522 339T499 331H166L122 53H470Q499 53 499 32Q499
15 490 8T467 0H91ZM498 810Q463 810 463 842Q463 889 509 889Q544 889 544 857Q544 810 498 810ZM331 810Q296 810 296 842Q296 889 342 889Q376 889 376 857Q376 810 331 810Z" />
<glyph unicode="&#xcc;" glyph-name="Igrave" horiz-adv-x="245" d="M85 -6Q52 -6 58 31L161 680Q166 711 195 711Q228 711 222 674L119 25Q114 -6 85 -6ZM177 770L82 899Q69 916 77 929T103 944T131 928L214 793Q221 782 215 772T198 760T177 770Z" />
<glyph unicode="&#xcd;" glyph-name="Iacute" horiz-adv-x="245" d="M85 -6Q52 -6 58 31L161 680Q166 711 195 711Q228 711 222 674L119 25Q114 -6 85 -6ZM235 769Q225 758 214 760T198 771T201 792L307 930Q320 947 336 945T360 929T353 900L235 769Z" />
<glyph unicode="&#xce;" glyph-name="Icircumflex" horiz-adv-x="245" d="M85 -6Q52 -6 58 31L161 680Q166 711 195 711Q228 711 222 674L119 25Q114 -6 85 -6ZM95 766Q85 756 74 757T59 767T63 787L170 918Q191 944 218 944Q232 944 241 937T258 917L337 787Q345
774 339 766T320 757T298 770L213 891L95 766Z" />
<glyph unicode="&#xcf;" glyph-name="Idieresis" horiz-adv-x="245" d="M85 -6Q52 -6 58 31L161 680Q166 711 195 711Q228 711 222 674L119 25Q114 -6 85 -6ZM297 810Q262 810 262 842Q262 889 308 889Q343 889 343 857Q343 810 297 810ZM130 810Q95 810 95 842Q95
889 141 889Q175 889 175 857Q175 810 130 810Z" />
<glyph unicode="&#xd0;" glyph-name="Eth" horiz-adv-x="733" d="M91 0Q73 0 65 10T59 38L160 673Q165 705 198 705H364Q520 705 605 629T690 413Q690 328 667 254T596 122T472 33T293 0H91ZM124 54H295Q385 54 447 82T549 161T607 275T625 413Q625 528 559 589T363
651H219L124 54ZM42 333Q14 333 14 354Q14 383 45 383H349Q377 383 377 363Q377 333 346 333H42Z" />
<glyph unicode="&#xd1;" glyph-name="Ntilde" horiz-adv-x="735" d="M82 -6Q53 -6 58 28L162 684Q166 711 192 711Q204 711 210 706T223 691L563 97L656 683Q660 711 690 711Q717 711 712 677L608 22Q604 -6 581 -6Q569 -6 562 -1T548 15L207 609L114 22Q110 -6
82 -6ZM267 785Q246 787 252 810Q281 917 368 917Q395 917 418 905T463 877T505 849T545 836Q598 836 619 905Q625 923 643 922Q664 920 658 897Q644 843 614 817T542 790Q514 790 491 802T446 830T404 858T364 871Q312 871 291 802Q285 784 267 785Z" />
<glyph unicode="&#xd2;" glyph-name="Ograve" horiz-adv-x="759" d="M362 -8Q233 -8 156 69T79 291Q79 381 102 457T169 591T280 681T431 713Q561 713 638 636T715 414Q715 325 692 248T624 114T514 24T362 -8ZM364 48Q457 48 520 96T616 227T649 413Q649 537
591 597T428 657Q337 657 274 609T178 479T145 292Q145 168 203 108T364 48ZM424 770L329 899Q316 916 324 929T350 944T378 928L461 793Q468 782 462 772T445 760T424 770Z" />
<glyph unicode="&#xd3;" glyph-name="Oacute" horiz-adv-x="759" d="M362 -8Q233 -8 156 69T79 291Q79 381 102 457T169 591T280 681T431 713Q561 713 638 636T715 414Q715 325 692 248T624 114T514 24T362 -8ZM364 48Q457 48 520 96T616 227T649 413Q649 537
591 597T428 657Q337 657 274 609T178 479T145 292Q145 168 203 108T364 48ZM482 769Q472 758 461 760T445 771T448 792L554 930Q567 947 583 945T607 929T600 900L482 769Z" />
<glyph unicode="&#xd4;" glyph-name="Ocircumflex" horiz-adv-x="759" d="M362 -8Q233 -8 156 69T79 291Q79 381 102 457T169 591T280 681T431 713Q561 713 638 636T715 414Q715 325 692 248T624 114T514 24T362 -8ZM364 48Q457 48 520 96T616 227T649 413Q649
537 591 597T428 657Q337 657 274 609T178 479T145 292Q145 168 203 108T364 48ZM342 766Q332 756 321 757T306 767T310 787L417 918Q438 944 465 944Q479 944 488 937T505 917L584 787Q592 774 586 766T567 757T545 770L460 891L342 766Z" />
<glyph unicode="&#xd5;" glyph-name="Otilde" horiz-adv-x="759" d="M362 -8Q233 -8 156 69T79 291Q79 381 102 457T169 591T280 681T431 713Q561 713 638 636T715 414Q715 325 692 248T624 114T514 24T362 -8ZM364 48Q457 48 520 96T616 227T649 413Q649 537
591 597T428 657Q337 657 274 609T178 479T145 292Q145 168 203 108T364 48ZM269 785Q248 787 254 810Q283 917 370 917Q397 917 420 905T465 877T507 849T547 836Q600 836 621 905Q627 923 645 922Q666 920 660 897Q646 843 616 817T544 790Q516 790 493 802T448
830T406 858T366 871Q314 871 293 802Q287 784 269 785Z" />
<glyph unicode="&#xd6;" glyph-name="Odieresis" horiz-adv-x="759" d="M362 -8Q233 -8 156 69T79 291Q79 381 102 457T169 591T280 681T431 713Q561 713 638 636T715 414Q715 325 692 248T624 114T514 24T362 -8ZM364 48Q457 48 520 96T616 227T649 413Q649 537
591 597T428 657Q337 657 274 609T178 479T145 292Q145 168 203 108T364 48ZM544 810Q509 810 509 842Q509 889 555 889Q590 889 590 857Q590 810 544 810ZM377 810Q342 810 342 842Q342 889 388 889Q422 889 422 857Q422 810 377 810Z" />
<glyph unicode="&#xd7;" glyph-name="multiply" horiz-adv-x="600" d="M105 63Q91 50 78 55T61 74T70 99L272 286L104 470Q93 482 98 495T117 512T144 503L310 320L511 505Q525 518 538 513T555 494T546 469L344 283L512 97Q524 84 519 71T500 54T473 64L306 248L105 63Z" />
<glyph unicode="&#xd8;" glyph-name="Oslash" horiz-adv-x="759" d="M362 -8Q233 -8 156 69T79 291Q79 381 102 457T169 591T280 681T431 713Q561 713 638 636T715 414Q715 325 692 248T624 114T514 24T362 -8ZM364 48Q457 48 520 96T616 227T649 413Q649 537
591 597T428 657Q337 657 274 609T178 479T145 292Q145 168 203 108T364 48ZM154 -16Q143 -30 130 -28T110 -14T114 13L167 84L189 113L565 622L587 651L640 721Q650 735 663 733T683 718T679 692L626 621L605 592L229 84L206 54L154 -16Z" />
<glyph unicode="&#xd9;" glyph-name="Ugrave" horiz-adv-x="724" d="M333 -8Q200 -8 136 67T94 292L156 682Q161 711 191 711Q223 711 217 676L155 286Q136 166 182 107T335 48Q440 48 500 101T580 272L645 682Q650 711 680 711Q712 711 705 676L641 265Q619 129
544 61T333 -8ZM416 770L321 899Q308 916 316 929T342 944T370 928L453 793Q460 782 454 772T437 760T416 770Z" />
<glyph unicode="&#xda;" glyph-name="Uacute" horiz-adv-x="724" d="M333 -8Q200 -8 136 67T94 292L156 682Q161 711 191 711Q223 711 217 676L155 286Q136 166 182 107T335 48Q440 48 500 101T580 272L645 682Q650 711 680 711Q712 711 705 676L641 265Q619 129
544 61T333 -8ZM474 769Q464 758 453 760T437 771T440 792L546 930Q559 947 575 945T599 929T592 900L474 769Z" />
<glyph unicode="&#xdb;" glyph-name="Ucircumflex" horiz-adv-x="724" d="M333 -8Q200 -8 136 67T94 292L156 682Q161 711 191 711Q223 711 217 676L155 286Q136 166 182 107T335 48Q440 48 500 101T580 272L645 682Q650 711 680 711Q712 711 705 676L641 265Q619
129 544 61T333 -8ZM334 766Q324 756 313 757T298 767T302 787L409 918Q430 944 457 944Q471 944 480 937T497 917L576 787Q584 774 578 766T559 757T537 770L452 891L334 766Z" />
<glyph unicode="&#xdc;" glyph-name="Udieresis" horiz-adv-x="724" d="M333 -8Q200 -8 136 67T94 292L156 682Q161 711 191 711Q223 711 217 676L155 286Q136 166 182 107T335 48Q440 48 500 101T580 272L645 682Q650 711 680 711Q712 711 705 676L641 265Q619
129 544 61T333 -8ZM536 810Q501 810 501 842Q501 889 547 889Q582 889 582 857Q582 810 536 810ZM369 810Q334 810 334 842Q334 889 380 889Q414 889 414 857Q414 810 369 810Z" />
<glyph unicode="&#xdd;" glyph-name="Yacute" horiz-adv-x="586" d="M254 -6Q223 -6 228 29L276 337L89 665Q78 684 85 697T110 711Q122 711 129 706T143 688L312 392L581 693Q597 711 615 711Q632 711 639 697T631 665L338 338L288 24Q284 -6 254 -6ZM398 769Q388
758 377 760T361 771T364 792L470 930Q483 947 499 945T523 929T516 900L398 769Z" />
<glyph unicode="&#xde;" glyph-name="Thorn" horiz-adv-x="625" d="M83 -6Q52 -6 58 30L161 679Q166 710 196 710Q211 710 218 702T223 678L207 574H390Q494 574 552 528T610 387Q610 283 544 221T353 158H140L119 24Q114 -6 83 -6ZM149 212H357Q450 212 498 256T547
384Q547 455 507 488T387 521H198L149 212Z" />
<glyph unicode="&#xdf;" glyph-name="germandbls" horiz-adv-x="597" d="M364 -8Q316 -8 271 5T197 40Q182 51 183 66T196 88T225 84Q283 43 360 43Q421 43 453 65T486 131Q486 159 466 182T388 225Q320 248 293 276T265 348Q265 374 274 394T305 435T366 485Q401
511 420 534T440 592Q440 622 419 642T356 663Q282 663 239 620T182 496L107 23Q102 -6 73 -6Q41 -6 47 29L120 492Q137 599 196 656T358 713Q425 713 462 679T500 598Q500 548 474 516T404 451Q367 424 346 403T325 351Q325 327 345 308T419 271Q480 249 513 219T546
137Q546 69 496 31T364 -8Z" />
<glyph unicode="&#xe0;" glyph-name="agrave" horiz-adv-x="522" d="M202 -8Q161 -8 125 10T67 60T44 136Q44 212 109 245T319 278H390L395 313Q406 376 380 409T288 442Q249 442 215 434T148 406Q130 395 118 402T105 425T126 451Q162 473 205 483T293 494Q387
494 427 441T452 296L409 24Q404 -6 375 -6Q346 -6 351 29L359 78Q333 34 290 13T202 -8ZM213 41Q271 41 317 80T376 191L382 233H333Q248 233 199 225T130 195T109 139Q109 90 140 66T213 41ZM283 556L170 718Q157 736 166 748T192 761T220 742L319 577Q326 563
321 554T304 544T283 556Z" />
<glyph unicode="&#xe1;" glyph-name="aacute" horiz-adv-x="522" d="M202 -8Q161 -8 125 10T67 60T44 136Q44 212 109 245T319 278H390L395 313Q406 376 380 409T288 442Q249 442 215 434T148 406Q130 395 118 402T105 425T126 451Q162 473 205 483T293 494Q387
494 427 441T452 296L409 24Q404 -6 375 -6Q346 -6 351 29L359 78Q333 34 290 13T202 -8ZM213 41Q271 41 317 80T376 191L382 233H333Q248 233 199 225T130 195T109 139Q109 90 140 66T213 41ZM338 554Q329 542 319 543T303 554T306 576L419 744Q432 764 448 762T471
746T466 716L338 554Z" />
<glyph unicode="&#xe2;" glyph-name="acircumflex" horiz-adv-x="522" d="M202 -8Q161 -8 125 10T67 60T44 136Q44 212 109 245T319 278H390L395 313Q406 376 380 409T288 442Q249 442 215 434T148 406Q130 395 118 402T105 425T126 451Q162 473 205 483T293 494Q387
494 427 441T452 296L409 24Q404 -6 375 -6Q346 -6 351 29L359 78Q333 34 290 13T202 -8ZM213 41Q271 41 317 80T376 191L382 233H333Q248 233 199 225T130 195T109 139Q109 90 140 66T213 41ZM441 572Q447 559 440 551T421 543T404 555L329 705L219 554Q211 543
200 543T183 552T186 574L292 737Q301 751 311 756T334 762Q358 762 369 737L441 572Z" />
<glyph unicode="&#xe3;" glyph-name="atilde" horiz-adv-x="522" d="M202 -8Q161 -8 125 10T67 60T44 136Q44 212 109 245T319 278H390L395 313Q406 376 380 409T288 442Q249 442 215 434T148 406Q130 395 118 402T105 425T126 451Q162 473 205 483T293 494Q387
494 427 441T452 296L409 24Q404 -6 375 -6Q346 -6 351 29L359 78Q333 34 290 13T202 -8ZM213 41Q271 41 317 80T376 191L382 233H333Q248 233 199 225T130 195T109 139Q109 90 140 66T213 41ZM163 590Q142 592 148 614Q160 666 187 694T254 722Q278 722 295 710T326
682T355 654T388 641Q411 641 428 659T454 709Q460 728 478 727Q499 725 494 703Q481 651 454 623T388 595Q364 595 347 607T315 635T286 663T253 676Q230 676 213 658T187 608Q182 589 163 590Z" />
<glyph unicode="&#xe4;" glyph-name="adieresis" horiz-adv-x="522" d="M202 -8Q161 -8 125 10T67 60T44 136Q44 212 109 245T319 278H390L395 313Q406 376 380 409T288 442Q249 442 215 434T148 406Q130 395 118 402T105 425T126 451Q162 473 205 483T293 494Q387
494 427 441T452 296L409 24Q404 -6 375 -6Q346 -6 351 29L359 78Q333 34 290 13T202 -8ZM213 41Q271 41 317 80T376 191L382 233H333Q248 233 199 225T130 195T109 139Q109 90 140 66T213 41ZM407 612Q372 612 372 643Q372 691 418 691Q452 691 452 659Q452 612
407 612ZM239 612Q204 612 204 643Q204 691 250 691Q285 691 285 659Q285 612 239 612Z" />
<glyph unicode="&#xe5;" glyph-name="aring" horiz-adv-x="522" d="M202 -8Q161 -8 125 10T67 60T44 136Q44 212 109 245T319 278H390L395 313Q406 376 380 409T288 442Q249 442 215 434T148 406Q130 395 118 402T105 425T126 451Q162 473 205 483T293 494Q387
494 427 441T452 296L409 24Q404 -6 375 -6Q346 -6 351 29L359 78Q333 34 290 13T202 -8ZM213 41Q271 41 317 80T376 191L382 233H333Q248 233 199 225T130 195T109 139Q109 90 140 66T213 41ZM330 547Q282 547 249 579T215 660Q215 707 248 739T330 772Q379 772
412 740T446 660Q446 612 413 580T330 547ZM330 584Q363 584 384 606T405 660Q405 691 384 713T330 735Q297 735 276 713T255 660Q255 628 276 606T330 584Z" />
<glyph unicode="&#xe6;" glyph-name="ae" horiz-adv-x="859" d="M207 -8Q165 -8 128 9T68 58T44 136Q44 212 109 245T319 278H393L397 305Q420 442 288 442Q249 442 215 434T148 406Q130 395 118 402T105 425T126 451Q162 473 205 483T293 494Q415 494 445 400Q477
443 524 468T634 494Q709 494 751 460T809 372T817 261L816 251Q814 233 791 233H441Q431 147 472 95T597 43Q637 43 671 52T737 85Q756 98 768 92T780 70T764 43Q730 18 685 5T596 -8Q522 -8 472 23T400 110Q371 49 320 21T207 -8ZM633 445Q577 445 539 421T479
358T448 278H765Q770 324 758 362T716 422T633 445ZM213 41Q271 41 318 76T378 183L386 233H333Q248 233 199 224T130 195T109 139Q109 91 140 66T213 41Z" />
<glyph unicode="&#xe7;" glyph-name="ccedilla" horiz-adv-x="459" d="M253 -8Q149 -8 99 51T49 205Q49 258 63 309T108 402T187 469T301 494Q339 494 375 483T437 453Q456 439 456 423T446 399T419 403Q369 441 301 441Q250 441 214 421T155 367T122 290T111
205Q111 132 145 88T259 44Q284 44 313 52T368 80Q383 90 394 83T407 61T394 36Q366 15 328 4T253 -8ZM218 -191Q180 -191 152 -180Q138 -175 137 -163T143 -143T165 -140Q188 -150 223 -150Q250 -150 268 -139T287 -108Q287 -80 252 -80Q233 -80 214 -85Q198 -89
192 -84Q186 -77 191 -63L217 20H262L240 -46Q252 -44 262 -44Q294 -44 314 -60T334 -105Q334 -144 301 -167T218 -191Z" />
<glyph unicode="&#xe8;" glyph-name="egrave" horiz-adv-x="527" d="M265 -8Q164 -8 106 48T48 203Q48 281 78 347T165 453T302 494Q376 494 419 460T477 371T485 257Q483 241 477 236T458 230H109Q99 146 141 95T266 43Q306 43 340 52T406 85Q425 98 436 92T448
70T432 43Q399 18 354 5T265 -8ZM301 445Q244 445 206 420T146 356T116 275H434Q439 322 427 360T385 422T301 445ZM289 556L176 718Q163 736 172 748T198 761T226 742L325 577Q332 563 327 554T310 544T289 556Z" />
<glyph unicode="&#xe9;" glyph-name="eacute" horiz-adv-x="527" d="M265 -8Q164 -8 106 48T48 203Q48 281 78 347T165 453T302 494Q376 494 419 460T477 371T485 257Q483 241 477 236T458 230H109Q99 146 141 95T266 43Q306 43 340 52T406 85Q425 98 436 92T448
70T432 43Q399 18 354 5T265 -8ZM301 445Q244 445 206 420T146 356T116 275H434Q439 322 427 360T385 422T301 445ZM344 554Q335 542 325 543T309 554T312 576L425 744Q438 764 454 762T477 746T472 716L344 554Z" />
<glyph unicode="&#xea;" glyph-name="ecircumflex" horiz-adv-x="527" d="M265 -8Q164 -8 106 48T48 203Q48 281 78 347T165 453T302 494Q376 494 419 460T477 371T485 257Q483 241 477 236T458 230H109Q99 146 141 95T266 43Q306 43 340 52T406 85Q425 98 436
92T448 70T432 43Q399 18 354 5T265 -8ZM301 445Q244 445 206 420T146 356T116 275H434Q439 322 427 360T385 422T301 445ZM447 572Q453 559 446 551T427 543T410 555L335 705L225 554Q217 543 206 543T189 552T192 574L298 737Q307 751 317 756T340 762Q364 762
375 737L447 572Z" />
<glyph unicode="&#xeb;" glyph-name="edieresis" horiz-adv-x="527" d="M265 -8Q164 -8 106 48T48 203Q48 281 78 347T165 453T302 494Q376 494 419 460T477 371T485 257Q483 241 477 236T458 230H109Q99 146 141 95T266 43Q306 43 340 52T406 85Q425 98 436 92T448
70T432 43Q399 18 354 5T265 -8ZM301 445Q244 445 206 420T146 356T116 275H434Q439 322 427 360T385 422T301 445ZM413 612Q378 612 378 643Q378 691 424 691Q458 691 458 659Q458 612 413 612ZM245 612Q210 612 210 643Q210 691 256 691Q291 691 291 659Q291
612 245 612Z" />
<glyph unicode="&#xec;" glyph-name="igrave" horiz-adv-x="222" d="M72 -6Q41 -6 47 30L115 461Q120 492 150 492Q181 492 175 456L107 24Q102 -6 72 -6ZM132 556L19 718Q6 736 15 748T41 761T69 742L168 577Q175 563 170 554T153 544T132 556Z" />
<glyph unicode="&#xed;" glyph-name="iacute" horiz-adv-x="222" d="M72 -6Q41 -6 47 30L115 461Q120 492 150 492Q181 492 175 456L107 24Q102 -6 72 -6ZM187 554Q178 542 168 543T152 554T155 576L268 744Q281 764 297 762T320 746T315 716L187 554Z" />
<glyph unicode="&#xee;" glyph-name="icircumflex" horiz-adv-x="222" d="M72 -6Q41 -6 47 30L115 461Q120 492 150 492Q181 492 175 456L107 24Q102 -6 72 -6ZM290 572Q296 559 289 551T270 543T253 555L178 705L68 554Q60 543 49 543T32 552T35 574L141 737Q150
751 160 756T183 762Q207 762 218 737L290 572Z" />
<glyph unicode="&#xef;" glyph-name="idieresis" horiz-adv-x="222" d="M72 -6Q41 -6 47 30L115 461Q120 492 150 492Q181 492 175 456L107 24Q102 -6 72 -6ZM256 612Q221 612 221 643Q221 691 267 691Q301 691 301 659Q301 612 256 612ZM88 612Q53 612 53 643Q53
691 99 691Q134 691 134 659Q134 612 88 612Z" />
<glyph unicode="&#xf0;" glyph-name="eth" horiz-adv-x="550" d="M249 -8Q191 -8 145 15T72 82T45 186Q45 265 77 325T164 419T291 453Q345 453 388 431T452 362Q446 439 419 500T342 603L209 546Q195 541 186 548T177 567T193 585L301 631Q265 652 225 665Q207
670 205 682T211 704T239 708Q273 697 301 684T355 654L478 706Q494 713 503 706T511 686T494 668L392 625Q452 570 479 491T507 313Q507 251 493 194T447 91T367 19T249 -8ZM252 44Q303 44 345 68T412 140T437 256Q437 326 398 363T291 401Q240 401 198 377T132
305T107 189Q107 120 146 82T252 44Z" />
<glyph unicode="&#xf1;" glyph-name="ntilde" horiz-adv-x="560" d="M73 -6Q58 -6 52 4T48 31L116 461Q120 492 151 492Q180 492 174 457L165 399Q193 444 238 469T343 494Q424 494 465 445T490 295L447 23Q442 -6 412 -6Q381 -6 387 30L429 295Q452 441 331 441Q251
441 205 393T145 264L108 24Q103 -6 73 -6ZM180 590Q159 592 165 614Q177 666 204 694T271 722Q295 722 312 710T343 682T372 654T405 641Q428 641 445 659T471 709Q477 728 495 727Q516 725 511 703Q498 651 471 623T405 595Q381 595 364 607T332 635T303 663T270
676Q247 676 230 658T204 608Q199 589 180 590Z" />
<glyph unicode="&#xf2;" glyph-name="ograve" horiz-adv-x="547" d="M250 -8Q156 -8 102 48T48 203Q48 282 77 348T163 454T297 494Q390 494 444 438T499 283Q499 203 469 137T384 32T250 -8ZM252 43Q312 43 353 76T415 164T437 285Q437 362 399 402T294 442Q235
442 194 409T131 321T110 200Q110 123 147 83T252 43ZM295 556L182 718Q169 736 178 748T204 761T232 742L331 577Q338 563 333 554T316 544T295 556Z" />
<glyph unicode="&#xf3;" glyph-name="oacute" horiz-adv-x="547" d="M250 -8Q156 -8 102 48T48 203Q48 282 77 348T163 454T297 494Q390 494 444 438T499 283Q499 203 469 137T384 32T250 -8ZM252 43Q312 43 353 76T415 164T437 285Q437 362 399 402T294 442Q235
442 194 409T131 321T110 200Q110 123 147 83T252 43ZM350 554Q341 542 331 543T315 554T318 576L431 744Q444 764 460 762T483 746T478 716L350 554Z" />
<glyph unicode="&#xf4;" glyph-name="ocircumflex" horiz-adv-x="547" d="M250 -8Q156 -8 102 48T48 203Q48 282 77 348T163 454T297 494Q390 494 444 438T499 283Q499 203 469 137T384 32T250 -8ZM252 43Q312 43 353 76T415 164T437 285Q437 362 399 402T294
442Q235 442 194 409T131 321T110 200Q110 123 147 83T252 43ZM453 572Q459 559 452 551T433 543T416 555L341 705L231 554Q223 543 212 543T195 552T198 574L304 737Q313 751 323 756T346 762Q370 762 381 737L453 572Z" />
<glyph unicode="&#xf5;" glyph-name="otilde" horiz-adv-x="547" d="M250 -8Q156 -8 102 48T48 203Q48 282 77 348T163 454T297 494Q390 494 444 438T499 283Q499 203 469 137T384 32T250 -8ZM252 43Q312 43 353 76T415 164T437 285Q437 362 399 402T294 442Q235
442 194 409T131 321T110 200Q110 123 147 83T252 43ZM175 590Q154 592 160 614Q172 666 199 694T266 722Q290 722 307 710T338 682T367 654T400 641Q423 641 440 659T466 709Q472 728 490 727Q511 725 506 703Q493 651 466 623T400 595Q376 595 359 607T327 635T298
663T265 676Q242 676 225 658T199 608Q194 589 175 590Z" />
<glyph unicode="&#xf6;" glyph-name="odieresis" horiz-adv-x="547" d="M250 -8Q156 -8 102 48T48 203Q48 282 77 348T163 454T297 494Q390 494 444 438T499 283Q499 203 469 137T384 32T250 -8ZM252 43Q312 43 353 76T415 164T437 285Q437 362 399 402T294 442Q235
442 194 409T131 321T110 200Q110 123 147 83T252 43ZM419 612Q384 612 384 643Q384 691 430 691Q464 691 464 659Q464 612 419 612ZM251 612Q216 612 216 643Q216 691 262 691Q297 691 297 659Q297 612 251 612Z" />
<glyph unicode="&#xf7;" glyph-name="divide" horiz-adv-x="600" d="M326 444Q309 444 299 453T289 479Q289 500 303 514T339 529Q357 529 366 519T375 494Q375 472 362 458T326 444ZM84 262Q57 262 57 282Q57 312 87 312H530Q557 312 557 291Q557 262 527 262H84ZM263
45Q245 45 236 54T226 80Q226 101 239 115T276 129Q293 129 302 120T312 94Q312 73 299 59T263 45Z" />
<glyph unicode="&#xf8;" glyph-name="oslash" horiz-adv-x="547" d="M109 -21Q100 -34 88 -32T70 -18T74 6L104 47Q48 103 48 203Q48 282 78 348T163 454T297 494Q362 494 410 465L440 506Q449 519 460 517T478 503T474 479L444 438Q499 382 499 283Q499 203 470
137T384 32T250 -8Q185 -8 138 19L109 -21ZM107 200Q107 132 137 92L378 422Q344 443 294 443Q234 443 192 411T129 323T107 200ZM253 42Q313 42 354 75T418 163T440 286Q440 352 411 392L170 62Q203 42 253 42Z" />
<glyph unicode="&#xf9;" glyph-name="ugrave" horiz-adv-x="553" d="M215 -8Q136 -8 95 40T70 191L113 462Q118 492 147 492Q162 492 169 483T174 457L132 190Q108 44 227 44Q303 44 349 92T408 222L445 462Q450 492 480 492Q511 492 506 459L437 23Q433 -6 404
-6Q373 -6 378 28L387 84Q360 40 316 16T215 -8ZM292 557L179 719Q166 737 175 749T201 762T229 743L328 578Q335 564 330 555T313 545T292 557Z" />
<glyph unicode="&#xfa;" glyph-name="uacute" horiz-adv-x="553" d="M215 -8Q136 -8 95 40T70 191L113 462Q118 492 147 492Q162 492 169 483T174 457L132 190Q108 44 227 44Q303 44 349 92T408 222L445 462Q450 492 480 492Q511 492 506 459L437 23Q433 -6 404
-6Q373 -6 378 28L387 84Q360 40 316 16T215 -8ZM347 555Q338 543 328 544T312 555T315 577L428 745Q441 765 457 763T480 747T475 717L347 555Z" />
<glyph unicode="&#xfb;" glyph-name="ucircumflex" horiz-adv-x="553" d="M215 -8Q136 -8 95 40T70 191L113 462Q118 492 147 492Q162 492 169 483T174 457L132 190Q108 44 227 44Q303 44 349 92T408 222L445 462Q450 492 480 492Q511 492 506 459L437 23Q433
-6 404 -6Q373 -6 378 28L387 84Q360 40 316 16T215 -8ZM450 573Q456 560 449 552T430 544T413 556L338 706L228 555Q220 544 209 544T192 553T195 575L301 738Q310 752 320 757T343 763Q367 763 378 738L450 573Z" />
<glyph unicode="&#xfc;" glyph-name="udieresis" horiz-adv-x="553" d="M215 -8Q136 -8 95 40T70 191L113 462Q118 492 147 492Q162 492 169 483T174 457L132 190Q108 44 227 44Q303 44 349 92T408 222L445 462Q450 492 480 492Q511 492 506 459L437 23Q433 -6
404 -6Q373 -6 378 28L387 84Q360 40 316 16T215 -8ZM416 613Q381 613 381 644Q381 692 427 692Q461 692 461 660Q461 613 416 613ZM248 613Q213 613 213 644Q213 692 259 692Q294 692 294 660Q294 613 248 613Z" />
<glyph unicode="&#xfd;" glyph-name="yacute" horiz-adv-x="509" d="M117 -186Q98 -186 93 -173T99 -142L183 2L64 447Q59 467 67 479T93 492Q106 492 112 485T123 463L223 68L454 469Q467 492 488 492Q506 492 513 479T509 447L150 -163Q144 -175 137 -180T117
-186ZM318 554Q309 542 299 543T283 554T286 576L399 744Q412 764 428 762T451 746T446 716L318 554Z" />
<glyph unicode="&#xfe;" glyph-name="thorn" horiz-adv-x="575" d="M43 -186Q12 -186 18 -151L150 681Q155 711 185 711Q216 711 210 676L167 403Q194 446 238 470T339 494Q424 494 476 438T528 286Q528 207 500 140T418 33T285 -8Q229 -8 184 18T119 101L78 -157Q73
-186 43 -186ZM281 43Q341 43 382 76T444 164T466 285Q466 362 428 402T323 442Q264 442 223 409T160 321T139 200Q139 123 176 83T281 43Z" />
<glyph unicode="&#xff;" glyph-name="ydieresis" horiz-adv-x="509" d="M117 -186Q98 -186 93 -173T99 -142L183 2L64 447Q59 467 67 479T93 492Q106 492 112 485T123 463L223 68L454 469Q467 492 488 492Q506 492 513 479T509 447L150 -163Q144 -175 137 -180T117
-186ZM387 612Q352 612 352 643Q352 691 398 691Q432 691 432 659Q432 612 387 612ZM219 612Q184 612 184 643Q184 691 230 691Q265 691 265 659Q265 612 219 612Z" />
<glyph unicode="&#x2013;" glyph-name="endash" horiz-adv-x="500" d="M18 245Q-7 245 -7 264Q-7 274 0 280T20 287H489Q515 287 515 268Q515 257 507 251T488 245H18Z" />
<glyph unicode="&#x2014;" glyph-name="emdash" horiz-adv-x="1000" d="M22 245Q-3 245 -3 264Q-3 274 5 280T24 287H984Q1010 287 1010 268Q1010 257 1002 251T984 245H22Z" />
<glyph unicode="&#x2018;" glyph-name="quoteleft" horiz-adv-x="219" d="M172 697Q185 710 196 707T211 693T202 668Q174 638 166 609Q184 607 195 595T206 563Q206 543 194 530T161 517Q140 517 129 531T117 570Q117 606 132 639T172 697Z" />
<glyph unicode="&#x2019;" glyph-name="quoteright" horiz-adv-x="219" d="M164 528Q151 516 140 519T126 533T135 558Q163 588 171 617Q152 619 142 631T131 662Q131 682 143 695T175 708Q219 708 219 655Q219 620 205 587T164 528Z" />
<glyph unicode="&#x201a;" glyph-name="quotesinglbase" horiz-adv-x="219" d="M67 -91Q54 -104 43 -101T28 -87T37 -62Q65 -32 73 -3Q55 0 44 12T33 43Q33 63 45 76T78 89Q99 89 110 75T122 36Q122 0 107 -33T67 -91Z" />
<glyph unicode="&#x201c;" glyph-name="quotedblleft" horiz-adv-x="372" d="M172 697Q185 710 196 707T211 693T202 668Q174 638 166 609Q184 607 195 595T206 563Q206 543 194 530T161 517Q140 517 129 531T117 570Q117 606 132 639T172 697ZM325 697Q338 710
349 707T364 693T355 668Q327 638 319 609Q337 607 348 595T359 563Q359 543 347 530T314 517Q293 517 282 531T270 570Q270 606 285 639T325 697Z" />
<glyph unicode="&#x201d;" glyph-name="quotedblright" horiz-adv-x="372" d="M164 528Q151 516 140 519T126 533T135 558Q163 588 171 617Q152 619 142 631T131 662Q131 682 143 695T175 708Q219 708 219 655Q219 620 205 587T164 528ZM317 528Q304 516 293 519T279
533T288 558Q316 588 324 617Q305 619 295 631T284 662Q284 682 296 695T328 708Q372 708 372 655Q372 620 358 587T317 528Z" />
<glyph unicode="&#x201e;" glyph-name="quotedblbase" horiz-adv-x="372" d="M67 -91Q54 -104 43 -101T28 -87T37 -62Q65 -32 73 -3Q55 0 44 12T33 43Q33 63 45 76T78 89Q99 89 110 75T122 36Q122 0 107 -33T67 -91ZM220 -91Q207 -104 196 -101T181 -87T190 -62Q218
-32 226 -3Q208 0 197 12T186 43Q186 63 198 76T231 89Q252 89 263 75T275 36Q275 0 260 -33T220 -91Z" />
<glyph unicode="&#x2022;" glyph-name="bullet" horiz-adv-x="524" d="M265 88Q216 88 175 111T109 175T84 265Q84 311 107 351T172 417T265 443Q313 443 354 420T421 357T446 265Q446 216 422 176T356 112T265 88Z" />
<glyph unicode="&#x2039;" glyph-name="guilsinglleft" horiz-adv-x="248" d="M155 93Q144 89 134 93T119 109L63 244Q60 253 60 264T69 286L176 429Q190 447 210 438Q221 433 222 421T213 394L121 263L168 129Q178 101 155 93Z" />
<glyph unicode="&#x203a;" glyph-name="guilsinglright" horiz-adv-x="248" d="M44 93Q33 98 33 110T41 136L133 268L87 402Q77 430 99 438Q110 441 120 437T135 422L191 287Q194 278 194 267T185 245L78 101Q64 83 44 93Z" />
</font>
</defs>
</svg>
